  0
SECTION
  2
HEADER
  9
$ACADVER
  1
AC1018
  9
$ACADMAINTVER
 70
     0
  9
$DWGCODEPAGE
  3
ANSI_936
  9
$INSBASE
 10
0.0
 20
0.0
 30
0.0
  9
$EXTMIN
 10
58.32800464475891
 20
48.73479225624634
 30
0.0
  9
$EXTMAX
 10
1325.81360264957
 20
1190.635174580523
 30
0.0
  9
$LIMMIN
 10
0.0
 20
0.0
  9
$LIMMAX
 10
420.0
 20
297.0
  9
$ORTHOMODE
 70
     1
  9
$REGENMODE
 70
     1
  9
$FILLMODE
 70
     1
  9
$QTEXTMODE
 70
     0
  9
$MIRRTEXT
 70
     0
  9
$LTSCALE
 40
1.0
  9
$ATTMODE
 70
     1
  9
$TEXTSIZE
 40
2.5
  9
$TRACEWID
 40
1.0
  9
$TEXTSTYLE
  7
Standard
  9
$CLAYER
  8
标注
  9
$CELTYPE
  6
ByLayer
  9
$CECOLOR
 62
   256
  9
$CELTSCALE
 40
1.0
  9
$DISPSILH
 70
     0
  9
$DIMSCALE
 40
1.0
  9
$DIMASZ
 40
0.65
  9
$DIMEXO
 40
0.88
  9
$DIMDLI
 40
0.015
  9
$DIMRND
 40
0.0
  9
$DIMDLE
 40
0.0
  9
$DIMEXE
 40
0.32
  9
$DIMTP
 40
0.0
  9
$DIMTM
 40
0.0
  9
$DIMTXT
 40
0.65
  9
$DIMCEN
 40
0.09
  9
$DIMTSZ
 40
0.0
  9
$DIMTOL
 70
     0
  9
$DIMLIM
 70
     0
  9
$DIMTIH
 70
     0
  9
$DIMTOH
 70
     0
  9
$DIMSE1
 70
     0
  9
$DIMSE2
 70
     0
  9
$DIMTAD
 70
     0
  9
$DIMZIN
 70
     8
  9
$DIMBLK
  1

  9
$DIMASO
 70
     1
  9
$DIMSHO
 70
     1
  9
$DIMPOST
  1
"
  9
$DIMAPOST
  1
"
  9
$DIMALT
 70
     0
  9
$DIMALTD
 70
     1
  9
$DIMALTF
 40
0.03937
  9
$DIMLFAC
 40
1.0
  9
$DIMTOFL
 70
     1
  9
$DIMTVP
 40
0.0
  9
$DIMTIX
 70
     0
  9
$DIMSOXD
 70
     0
  9
$DIMSAH
 70
     0
  9
$DIMBLK1
  1

  9
$DIMBLK2
  1

  9
$DIMSTYLE
  2
副本Standard
  9
$DIMCLRD
 70
   256
  9
$DIMCLRE
 70
   256
  9
$DIMCLRT
 70
   256
  9
$DIMTFAC
 40
1.0
  9
$DIMGAP
 40
0.2
  9
$DIMJUST
 70
     0
  9
$DIMSD1
 70
     0
  9
$DIMSD2
 70
     0
  9
$DIMTOLJ
 70
     1
  9
$DIMTZIN
 70
     0
  9
$DIMALTZ
 70
     0
  9
$DIMALTTZ
 70
     0
  9
$DIMUPT
 70
     0
  9
$DIMDEC
 70
     3
  9
$DIMTDEC
 70
     3
  9
$DIMALTU
 70
     2
  9
$DIMALTTD
 70
     1
  9
$DIMTXSTY
  7
Standard
  9
$DIMAUNIT
 70
     0
  9
$DIMADEC
 70
     1
  9
$DIMALTRND
 40
0.0
  9
$DIMAZIN
 70
     2
  9
$DIMDSEP
 70
    44
  9
$DIMATFIT
 70
     3
  9
$DIMFRAC
 70
     2
  9
$DIMLDRBLK
  1

  9
$DIMLUNIT
 70
     5
  9
$DIMLWD
 70
    -2
  9
$DIMLWE
 70
    -2
  9
$DIMTMOVE
 70
     0
  9
$LUNITS
 70
     2
  9
$LUPREC
 70
     4
  9
$SKETCHINC
 40
1.0
  9
$FILLETRAD
 40
0.8
  9
$AUNITS
 70
     0
  9
$AUPREC
 70
     0
  9
$MENU
  1
.
  9
$ELEVATION
 40
0.0
  9
$PELEVATION
 40
0.0
  9
$THICKNESS
 40
0.0
  9
$LIMCHECK
 70
     0
  9
$CHAMFERA
 40
0.0
  9
$CHAMFERB
 40
0.0
  9
$CHAMFERC
 40
0.0
  9
$CHAMFERD
 40
0.0
  9
$SKPOLY
 70
     0
  9
$TDCREATE
 40
2455855.628782743
  9
$TDUCREATE
 40
2455855.295449410
  9
$TDUPDATE
 40
2455855.645239630
  9
$TDUUPDATE
 40
2455855.311906296
  9
$TDINDWG
 40
0.0164574190
  9
$TDUSRTIMER
 40
0.0164574190
  9
$USRTIMER
 70
     1
  9
$ANGBASE
 50
0.0
  9
$ANGDIR
 70
     0
  9
$PDMODE
 70
     0
  9
$PDSIZE
 40
0.0
  9
$PLINEWID
 40
0.0
  9
$SPLFRAME
 70
     0
  9
$SPLINETYPE
 70
     6
  9
$SPLINESEGS
 70
     8
  9
$HANDSEED
  5
972
  9
$SURFTAB1
 70
     6
  9
$SURFTAB2
 70
     6
  9
$SURFTYPE
 70
     6
  9
$SURFU
 70
     6
  9
$SURFV
 70
     6
  9
$UCSBASE
  2

  9
$UCSNAME
  2

  9
$UCSORG
 10
0.0
 20
0.0
 30
0.0
  9
$UCSXDIR
 10
1.0
 20
0.0
 30
0.0
  9
$UCSYDIR
 10
0.0
 20
1.0
 30
0.0
  9
$UCSORTHOREF
  2

  9
$UCSORTHOVIEW
 70
     0
  9
$UCSORGTOP
 10
0.0
 20
0.0
 30
0.0
  9
$UCSORGBOTTOM
 10
0.0
 20
0.0
 30
0.0
  9
$UCSORGLEFT
 10
0.0
 20
0.0
 30
0.0
  9
$UCSORGRIGHT
 10
0.0
 20
0.0
 30
0.0
  9
$UCSORGFRONT
 10
0.0
 20
0.0
 30
0.0
  9
$UCSORGBACK
 10
0.0
 20
0.0
 30
0.0
  9
$PUCSBASE
  2

  9
$PUCSNAME
  2

  9
$PUCSORG
 10
0.0
 20
0.0
 30
0.0
  9
$PUCSXDIR
 10
1.0
 20
0.0
 30
0.0
  9
$PUCSYDIR
 10
0.0
 20
1.0
 30
0.0
  9
$PUCSORTHOREF
  2

  9
$PUCSORTHOVIEW
 70
     0
  9
$PUCSORGTOP
 10
0.0
 20
0.0
 30
0.0
  9
$PUCSORGBOTTOM
 10
0.0
 20
0.0
 30
0.0
  9
$PUCSORGLEFT
 10
0.0
 20
0.0
 30
0.0
  9
$PUCSORGRIGHT
 10
0.0
 20
0.0
 30
0.0
  9
$PUCSORGFRONT
 10
0.0
 20
0.0
 30
0.0
  9
$PUCSORGBACK
 10
0.0
 20
0.0
 30
0.0
  9
$USERI1
 70
     0
  9
$USERI2
 70
     0
  9
$USERI3
 70
     0
  9
$USERI4
 70
     0
  9
$USERI5
 70
     0
  9
$USERR1
 40
0.0
  9
$USERR2
 40
0.0
  9
$USERR3
 40
0.0
  9
$USERR4
 40
0.0
  9
$USERR5
 40
0.0
  9
$WORLDVIEW
 70
     1
  9
$SHADEDGE
 70
     3
  9
$SHADEDIF
 70
    70
  9
$TILEMODE
 70
     1
  9
$MAXACTVP
 70
    64
  9
$PINSBASE
 10
0.0
 20
0.0
 30
0.0
  9
$PLIMCHECK
 70
     0
  9
$PEXTMIN
 10
1.000000000000000E+20
 20
1.000000000000000E+20
 30
1.000000000000000E+20
  9
$PEXTMAX
 10
-1.000000000000000E+20
 20
-1.000000000000000E+20
 30
-1.000000000000000E+20
  9
$PLIMMIN
 10
0.0
 20
0.0
  9
$PLIMMAX
 10
420.0
 20
297.0
  9
$UNITMODE
 70
     0
  9
$VISRETAIN
 70
     1
  9
$PLINEGEN
 70
     0
  9
$PSLTSCALE
 70
     1
  9
$TREEDEPTH
 70
  3020
  9
$CMLSTYLE
  2
Standard
  9
$CMLJUST
 70
     0
  9
$CMLSCALE
 40
20.0
  9
$PROXYGRAPHICS
 70
     1
  9
$MEASUREMENT
 70
     1
  9
$CELWEIGHT
370
    -1
  9
$ENDCAPS
280
     0
  9
$JOINSTYLE
280
     0
  9
$LWDISPLAY
290
     0
  9
$INSUNITS
 70
     4
  9
$HYPERLINKBASE
  1

  9
$STYLESHEET
  1

  9
$XEDIT
290
     1
  9
$CEPSNTYPE
380
     0
  9
$PSTYLEMODE
290
     1
  9
$FINGERPRINTGUID
  2
{B48F46D2-D0EA-4C00-A4A8-23CB7417C210}
  9
$VERSIONGUID
  2
{5408DDED-6596-4F67-867D-CB9B95AE7890}
  9
$EXTNAMES
290
     1
  9
$PSVPSCALE
 40
0.0
  9
$OLESTARTUP
290
     0
  9
$SORTENTS
280
   127
  9
$INDEXCTL
280
     0
  9
$HIDETEXT
280
     1
  9
$XCLIPFRAME
290
     0
  9
$HALOGAP
280
     0
  9
$OBSCOLOR
 70
   257
  9
$OBSLTYPE
280
     0
  9
$INTERSECTIONDISPLAY
280
     0
  9
$INTERSECTIONCOLOR
 70
   257
  9
$DIMASSOC
280
     2
  9
$PROJECTNAME
  1

  0
ENDSEC
  0
SECTION
  2
CLASSES
  0
CLASS
  1
ACDBDICTIONARYWDFLT
  2
AcDbDictionaryWithDefault
  3
ObjectDBX Classes
 90
        0
 91
        1
280
     0
281
     0
  0
CLASS
  1
DIMASSOC
  2
AcDbDimAssoc
  3
"AcDbDimAssoc|Product Desc:     AcDim ARX App For Dimension|Company:          Autodesk, Inc.|WEB Address:      www.autodesk.com"
 90
        0
 91
       64
280
     0
281
     0
  0
CLASS
  1
SORTENTSTABLE
  2
AcDbSortentsTable
  3
ObjectDBX Classes
 90
        0
 91
        1
280
     0
281
     0
  0
ENDSEC
  0
SECTION
  2
TABLES
  0
TABLE
  2
VPORT
  5
8
330
0
100
AcDbSymbolTable
 70
    34
  0
VPORT
  5
971
330
8
100
AcDbSymbolTableRecord
100
AcDbViewportTableRecord
  2
*Active
 70
     0
 10
0.0
 20
0.0
 11
1.0
 21
1.0
 12
81.59105981319049
 22
144.7030182009516
 13
0.0
 23
0.0
 14
10.0
 24
10.0
 15
10.0
 25
10.0
 16
0.0
 26
0.0
 36
1.0
 17
0.0
 27
0.0
 37
0.0
 40
204.6770391966838
 41
1.518855656697009
 42
50.0
 43
0.0
 44
0.0
 50
0.0
 51
0.0
 71
     0
 72
  1000
 73
     1
 74
     3
 75
     0
 76
     0
 77
     0
 78
     0
281
     0
 65
     1
110
0.0
120
0.0
130
0.0
111
1.0
121
0.0
131
0.0
112
0.0
122
1.0
132
0.0
 79
     0
146
0.0
  0
ENDTAB
  0
TABLE
  2
LTYPE
  5
5
330
0
100
AcDbSymbolTable
 70
     3
  0
LTYPE
  5
14
330
5
100
AcDbSymbolTableRecord
100
AcDbLinetypeTableRecord
  2
ByBlock
 70
     0
  3

 72
    65
 73
     0
 40
0.0
  0
LTYPE
  5
15
330
5
100
AcDbSymbolTableRecord
100
AcDbLinetypeTableRecord
  2
ByLayer
 70
     0
  3

 72
    65
 73
     0
 40
0.0
  0
LTYPE
  5
16
330
5
100
AcDbSymbolTableRecord
100
AcDbLinetypeTableRecord
  2
Continuous
 70
     0
  3
Solid line
 72
    65
 73
     0
 40
0.0
  0
LTYPE
  5
ED
330
5
100
AcDbSymbolTableRecord
100
AcDbLinetypeTableRecord
  2
CENTER2
 70
     0
  3
Center (.5x) ___ _ ___ _ ___ _ ___ _ ___ _ ___
 72
    65
 73
     4
 40
28.575
 49
19.05
 74
     0
 49
-3.174999999999998
 74
     0
 49
3.174999999999998
 74
     0
 49
-3.174999999999998
 74
     0
  0
LTYPE
  5
EE
330
5
100
AcDbSymbolTableRecord
100
AcDbLinetypeTableRecord
  2
HIDDEN2
 70
     0
  3
Hidden (.5x) _ _ _ _ _ _ _ _ _ _ _ _ _ _ _ _ _
 72
    65
 73
     2
 40
4.762499999999998
 49
3.174999999999998
 74
     0
 49
-1.587499999999999
 74
     0
  0
ENDTAB
  0
TABLE
  2
LAYER
  5
2
102
{ACAD_XDICTIONARY
360
F7
102
}
330
0
100
AcDbSymbolTable
 70
     6
  0
LAYER
  5
10
330
2
100
AcDbSymbolTableRecord
100
AcDbLayerTableRecord
  2
0
 70
     0
 62
     7
  6
Continuous
370
    -3
390
F
  0
LAYER
  5
EF
330
2
100
AcDbSymbolTableRecord
100
AcDbLayerTableRecord
  2
中心线
 70
     0
 62
     1
  6
CENTER2
370
    -3
390
F
  0
LAYER
  5
F0
330
2
100
AcDbSymbolTableRecord
100
AcDbLayerTableRecord
  2
虚线
 70
     0
 62
     4
  6
HIDDEN2
370
    -3
390
F
  0
LAYER
  5
F1
330
2
100
AcDbSymbolTableRecord
100
AcDbLayerTableRecord
  2
Defpoints
 70
     0
 62
     7
  6
Continuous
290
     0
370
    -3
390
F
  0
LAYER
  5
F2
330
2
100
AcDbSymbolTableRecord
100
AcDbLayerTableRecord
  2
标注
 70
     0
 62
    80
  6
Continuous
370
     5
390
F
1001
AcAecLayerStandard
1000

1000

  0
LAYER
  5
F3
330
2
100
AcDbSymbolTableRecord
100
AcDbLayerTableRecord
  2
截面层
 70
     0
 62
     6
  6
Continuous
370
    50
390
F
  0
ENDTAB
  0
TABLE
  2
STYLE
  5
3
330
0
100
AcDbSymbolTable
 70
     1
  0
STYLE
  5
11
330
3
100
AcDbSymbolTableRecord
100
AcDbTextStyleTableRecord
  2
Standard
 70
     0
 40
0.0
 41
1.0
 50
0.0
 71
     0
 42
2.5
  3
txt
  4

  0
ENDTAB
  0
TABLE
  2
VIEW
  5
6
330
0
100
AcDbSymbolTable
 70
     0
  0
ENDTAB
  0
TABLE
  2
UCS
  5
7
330
0
100
AcDbSymbolTable
 70
     0
  0
ENDTAB
  0
TABLE
  2
APPID
  5
9
330
0
100
AcDbSymbolTable
 70
     6
  0
APPID
  5
12
330
9
100
AcDbSymbolTableRecord
100
AcDbRegAppTableRecord
  2
ACAD
 70
     0
  0
APPID
  5
F6
330
9
100
AcDbSymbolTableRecord
100
AcDbRegAppTableRecord
  2
AcAecLayerStandard
 70
     0
  0
APPID
  5
453
330
9
100
AcDbSymbolTableRecord
100
AcDbRegAppTableRecord
  2
ACAD_DSTYLE_DIMEXT_LENGTH
 70
     0
  0
APPID
  5
454
330
9
100
AcDbSymbolTableRecord
100
AcDbRegAppTableRecord
  2
ACAD_DSTYLE_DIMEXT_ENABLED
 70
     0
  0
APPID
  5
455
330
9
100
AcDbSymbolTableRecord
100
AcDbRegAppTableRecord
  2
ACAD_DSTYLE_DIMJOGGED_JOGANGLE_SYMBOL
 70
     0
  0
APPID
  5
456
330
9
100
AcDbSymbolTableRecord
100
AcDbRegAppTableRecord
  2
ACAD_DSTYLE_DIMARC_LENGTH_SYMBOL
 70
     0
  0
ENDTAB
  0
TABLE
  2
DIMSTYLE
  5
A
330
0
100
AcDbSymbolTable
 70
     3
100
AcDbDimStyleTable
 71
     2
340
F5
340
29
  0
DIMSTYLE
105
29
330
A
100
AcDbSymbolTableRecord
100
AcDbDimStyleTableRecord
  2
ISO-25
 70
     0
 41
2.5
 42
0.625
 43
3.75
 44
1.25
 73
     0
 74
     0
 77
     1
 78
     8
140
2.5
141
2.5
143
0.03937007874016
147
0.625
171
     3
172
     1
271
     2
272
     2
274
     3
283
     0
284
     8
340
11
  0
DIMSTYLE
105
F4
330
A
100
AcDbSymbolTableRecord
100
AcDbDimStyleTableRecord
  2
Standard
 70
     0
340
11
  0
DIMSTYLE
105
F5
102
{ACAD_REACTORS
330
1B9
330
1B6
330
1B5
330
1B2
330
1AF
330
1AC
330
1A9
330
1A6
330
19C
330
1A3
330
1A0
330
19F
330
19B
330
198
330
183
330
180
330
4D0
330
4D6
330
4D9
330
4DC
330
4DF
330
4E2
330
4E5
330
4E8
330
6B1
330
921
330
931
330
941
330
951
330
961
102
}
330
A
100
AcDbSymbolTableRecord
100
AcDbDimStyleTableRecord
  2
副本Standard
 70
     0
  3
"
  4
"
 41
0.65
 42
0.88
 43
0.015
 44
0.32
 73
     0
 74
     0
 78
     8
 79
     2
140
0.65
143
0.03937
147
0.2
171
     1
172
     1
176
   256
177
   256
178
   256
179
     1
271
     3
272
     3
274
     1
276
     2
277
     5
278
    44
340
11
  0
ENDTAB
  0
TABLE
  2
BLOCK_RECORD
  5
1
330
0
100
AcDbSymbolTable
 70
    82
  0
BLOCK_RECORD
  5
21
330
1
100
AcDbSymbolTableRecord
100
AcDbBlockTableRecord
  2
*Model_Space
340
24
  0
BLOCK_RECORD
  5
1D
330
1
100
AcDbSymbolTableRecord
100
AcDbBlockTableRecord
  2
*Paper_Space
340
20
  0
BLOCK_RECORD
  5
25
330
1
100
AcDbSymbolTableRecord
100
AcDbBlockTableRecord
  2
*Paper_Space0
340
28
  0
BLOCK_RECORD
  5
2D
330
1
100
AcDbSymbolTableRecord
100
AcDbBlockTableRecord
  2
*D1
340
0
  0
BLOCK_RECORD
  5
3A
330
1
100
AcDbSymbolTableRecord
100
AcDbBlockTableRecord
  2
*D2
340
0
  0
BLOCK_RECORD
  5
47
330
1
100
AcDbSymbolTableRecord
100
AcDbBlockTableRecord
  2
*D3
340
0
  0
BLOCK_RECORD
  5
54
330
1
100
AcDbSymbolTableRecord
100
AcDbBlockTableRecord
  2
*D4
340
0
  0
BLOCK_RECORD
  5
61
330
1
100
AcDbSymbolTableRecord
100
AcDbBlockTableRecord
  2
*D5
340
0
  0
BLOCK_RECORD
  5
6E
330
1
100
AcDbSymbolTableRecord
100
AcDbBlockTableRecord
  2
*D6
340
0
  0
BLOCK_RECORD
  5
7B
330
1
100
AcDbSymbolTableRecord
100
AcDbBlockTableRecord
  2
*D7
340
0
  0
BLOCK_RECORD
  5
88
330
1
100
AcDbSymbolTableRecord
100
AcDbBlockTableRecord
  2
*D8
340
0
  0
BLOCK_RECORD
  5
95
330
1
100
AcDbSymbolTableRecord
100
AcDbBlockTableRecord
  2
*D9
340
0
  0
BLOCK_RECORD
  5
9D
330
1
100
AcDbSymbolTableRecord
100
AcDbBlockTableRecord
  2
*D10
340
0
  0
BLOCK_RECORD
  5
A5
330
1
100
AcDbSymbolTableRecord
100
AcDbBlockTableRecord
  2
*D11
340
0
  0
BLOCK_RECORD
  5
B3
330
1
100
AcDbSymbolTableRecord
100
AcDbBlockTableRecord
  2
*D12
340
0
  0
BLOCK_RECORD
  5
C1
330
1
100
AcDbSymbolTableRecord
100
AcDbBlockTableRecord
  2
*D13
340
0
  0
BLOCK_RECORD
  5
CF
330
1
100
AcDbSymbolTableRecord
100
AcDbBlockTableRecord
  2
*D14
340
0
  0
BLOCK_RECORD
  5
DD
330
1
100
AcDbSymbolTableRecord
100
AcDbBlockTableRecord
  2
*D15
340
0
  0
BLOCK_RECORD
  5
E5
330
1
100
AcDbSymbolTableRecord
100
AcDbBlockTableRecord
  2
*D16
340
0
  0
BLOCK_RECORD
  5
2DC
330
1
100
AcDbSymbolTableRecord
100
AcDbBlockTableRecord
  2
*D18
340
0
  0
BLOCK_RECORD
  5
2EA
330
1
100
AcDbSymbolTableRecord
100
AcDbBlockTableRecord
  2
*D19
340
0
  0
BLOCK_RECORD
  5
2F8
330
1
100
AcDbSymbolTableRecord
100
AcDbBlockTableRecord
  2
*D20
340
0
  0
BLOCK_RECORD
  5
305
330
1
100
AcDbSymbolTableRecord
100
AcDbBlockTableRecord
  2
*D21
340
0
  0
BLOCK_RECORD
  5
30D
330
1
100
AcDbSymbolTableRecord
100
AcDbBlockTableRecord
  2
*D22
340
0
  0
BLOCK_RECORD
  5
315
330
1
100
AcDbSymbolTableRecord
100
AcDbBlockTableRecord
  2
*D23
340
0
  0
BLOCK_RECORD
  5
32E
330
1
100
AcDbSymbolTableRecord
100
AcDbBlockTableRecord
  2
*D24
340
0
  0
BLOCK_RECORD
  5
347
330
1
100
AcDbSymbolTableRecord
100
AcDbBlockTableRecord
  2
*D25
340
0
  0
BLOCK_RECORD
  5
34F
330
1
100
AcDbSymbolTableRecord
100
AcDbBlockTableRecord
  2
*D26
340
0
  0
BLOCK_RECORD
  5
357
330
1
100
AcDbSymbolTableRecord
100
AcDbBlockTableRecord
  2
*D27
340
0
  0
BLOCK_RECORD
  5
364
330
1
100
AcDbSymbolTableRecord
100
AcDbBlockTableRecord
  2
*D28
340
0
  0
BLOCK_RECORD
  5
371
330
1
100
AcDbSymbolTableRecord
100
AcDbBlockTableRecord
  2
*D29
340
0
  0
BLOCK_RECORD
  5
37E
330
1
100
AcDbSymbolTableRecord
100
AcDbBlockTableRecord
  2
*D30
340
0
  0
BLOCK_RECORD
  5
38B
330
1
100
AcDbSymbolTableRecord
100
AcDbBlockTableRecord
  2
*D31
340
0
  0
BLOCK_RECORD
  5
3A2
330
1
100
AcDbSymbolTableRecord
100
AcDbBlockTableRecord
  2
*D32
340
0
  0
BLOCK_RECORD
  5
3AF
330
1
100
AcDbSymbolTableRecord
100
AcDbBlockTableRecord
  2
*D33
340
0
  0
BLOCK_RECORD
  5
3DC
330
1
100
AcDbSymbolTableRecord
100
AcDbBlockTableRecord
  2
*D34
340
0
  0
BLOCK_RECORD
  5
3EB
330
1
100
AcDbSymbolTableRecord
100
AcDbBlockTableRecord
  2
*D35
340
0
  0
BLOCK_RECORD
  5
3F8
330
1
100
AcDbSymbolTableRecord
100
AcDbBlockTableRecord
  2
*D36
340
0
  0
BLOCK_RECORD
  5
405
330
1
100
AcDbSymbolTableRecord
100
AcDbBlockTableRecord
  2
*D37
340
0
  0
BLOCK_RECORD
  5
412
330
1
100
AcDbSymbolTableRecord
100
AcDbBlockTableRecord
  2
*D38
340
0
  0
BLOCK_RECORD
  5
41F
330
1
100
AcDbSymbolTableRecord
100
AcDbBlockTableRecord
  2
*D39
340
0
  0
BLOCK_RECORD
  5
42C
330
1
100
AcDbSymbolTableRecord
100
AcDbBlockTableRecord
  2
*D40
340
0
  0
BLOCK_RECORD
  5
439
330
1
100
AcDbSymbolTableRecord
100
AcDbBlockTableRecord
  2
*D41
340
0
  0
BLOCK_RECORD
  5
446
330
1
100
AcDbSymbolTableRecord
100
AcDbBlockTableRecord
  2
*D42
340
0
  0
BLOCK_RECORD
  5
4EB
330
1
100
AcDbSymbolTableRecord
100
AcDbBlockTableRecord
  2
*D44
340
0
  0
BLOCK_RECORD
  5
4F8
330
1
100
AcDbSymbolTableRecord
100
AcDbBlockTableRecord
  2
*D45
340
0
  0
BLOCK_RECORD
  5
505
330
1
100
AcDbSymbolTableRecord
100
AcDbBlockTableRecord
  2
*D46
340
0
  0
BLOCK_RECORD
  5
512
330
1
100
AcDbSymbolTableRecord
100
AcDbBlockTableRecord
  2
*D47
340
0
  0
BLOCK_RECORD
  5
51F
330
1
100
AcDbSymbolTableRecord
100
AcDbBlockTableRecord
  2
*D48
340
0
  0
BLOCK_RECORD
  5
52C
330
1
100
AcDbSymbolTableRecord
100
AcDbBlockTableRecord
  2
*D49
340
0
  0
BLOCK_RECORD
  5
539
330
1
100
AcDbSymbolTableRecord
100
AcDbBlockTableRecord
  2
*D50
340
0
  0
BLOCK_RECORD
  5
546
330
1
100
AcDbSymbolTableRecord
100
AcDbBlockTableRecord
  2
*D51
340
0
  0
BLOCK_RECORD
  5
553
330
1
100
AcDbSymbolTableRecord
100
AcDbBlockTableRecord
  2
*D52
340
0
  0
BLOCK_RECORD
  5
6B2
330
1
100
AcDbSymbolTableRecord
100
AcDbBlockTableRecord
  2
*D55
340
0
  0
BLOCK_RECORD
  5
76A
330
1
100
AcDbSymbolTableRecord
100
AcDbBlockTableRecord
  2
*D59
340
0
  0
BLOCK_RECORD
  5
777
330
1
100
AcDbSymbolTableRecord
100
AcDbBlockTableRecord
  2
*D60
340
0
  0
BLOCK_RECORD
  5
784
330
1
100
AcDbSymbolTableRecord
100
AcDbBlockTableRecord
  2
*D61
340
0
  0
BLOCK_RECORD
  5
791
330
1
100
AcDbSymbolTableRecord
100
AcDbBlockTableRecord
  2
*D62
340
0
  0
BLOCK_RECORD
  5
79E
330
1
100
AcDbSymbolTableRecord
100
AcDbBlockTableRecord
  2
*D63
340
0
  0
BLOCK_RECORD
  5
7AB
330
1
100
AcDbSymbolTableRecord
100
AcDbBlockTableRecord
  2
*D64
340
0
  0
BLOCK_RECORD
  5
7B8
330
1
100
AcDbSymbolTableRecord
100
AcDbBlockTableRecord
  2
*D65
340
0
  0
BLOCK_RECORD
  5
80D
330
1
100
AcDbSymbolTableRecord
100
AcDbBlockTableRecord
  2
*D67
340
0
  0
BLOCK_RECORD
  5
81A
330
1
100
AcDbSymbolTableRecord
100
AcDbBlockTableRecord
  2
*D68
340
0
  0
BLOCK_RECORD
  5
827
330
1
100
AcDbSymbolTableRecord
100
AcDbBlockTableRecord
  2
*D69
340
0
  0
BLOCK_RECORD
  5
834
330
1
100
AcDbSymbolTableRecord
100
AcDbBlockTableRecord
  2
*D70
340
0
  0
BLOCK_RECORD
  5
841
330
1
100
AcDbSymbolTableRecord
100
AcDbBlockTableRecord
  2
*D71
340
0
  0
BLOCK_RECORD
  5
84E
330
1
100
AcDbSymbolTableRecord
100
AcDbBlockTableRecord
  2
*D72
340
0
  0
BLOCK_RECORD
  5
85B
330
1
100
AcDbSymbolTableRecord
100
AcDbBlockTableRecord
  2
*D73
340
0
  0
BLOCK_RECORD
  5
922
330
1
100
AcDbSymbolTableRecord
100
AcDbBlockTableRecord
  2
*D77
340
0
  0
BLOCK_RECORD
  5
932
330
1
100
AcDbSymbolTableRecord
100
AcDbBlockTableRecord
  2
*D78
340
0
  0
BLOCK_RECORD
  5
942
330
1
100
AcDbSymbolTableRecord
100
AcDbBlockTableRecord
  2
*D79
340
0
  0
BLOCK_RECORD
  5
952
330
1
100
AcDbSymbolTableRecord
100
AcDbBlockTableRecord
  2
*D80
340
0
  0
BLOCK_RECORD
  5
962
330
1
100
AcDbSymbolTableRecord
100
AcDbBlockTableRecord
  2
*D81
340
0
  0
ENDTAB
  0
ENDSEC
  0
SECTION
  2
BLOCKS
  0
BLOCK
  5
22
330
21
100
AcDbEntity
  8
0
100
AcDbBlockBegin
  2
*Model_Space
 70
     0
 10
0.0
 20
0.0
 30
0.0
  3
*Model_Space
  1

  0
ENDBLK
  5
23
330
21
100
AcDbEntity
  8
0
100
AcDbBlockEnd
  0
BLOCK
  5
1E
330
1D
100
AcDbEntity
 67
     1
  8
0
100
AcDbBlockBegin
  2
*Paper_Space
 70
     0
 10
0.0
 20
0.0
 30
0.0
  3
*Paper_Space
  1

  0
ENDBLK
  5
1F
330
1D
100
AcDbEntity
 67
     1
  8
0
100
AcDbBlockEnd
  0
BLOCK
  5
26
330
25
100
AcDbEntity
  8
0
100
AcDbBlockBegin
  2
*Paper_Space0
 70
     0
 10
0.0
 20
0.0
 30
0.0
  3
*Paper_Space0
  1

  0
ENDBLK
  5
27
330
25
100
AcDbEntity
  8
0
100
AcDbBlockEnd
  0
BLOCK
  5
2E
330
2D
100
AcDbEntity
  8
0
100
AcDbBlockBegin
  2
*D1
 70
     1
 10
0.0
 20
0.0
 30
0.0
  3
*D1
  1

  0
LINE
  5
2F
330
2D
100
AcDbEntity
  8
标注
370
    -2
100
AcDbLine
 10
407.0278305157853
 20
178.1497720044059
 30
0.0
 11
416.3048537223341
 21
178.1497720044059
 31
0.0
  0
LINE
  5
30
330
2D
100
AcDbEntity
  8
标注
370
    -2
100
AcDbLine
 10
407.0278305157853
 20
157.4096145240881
 30
0.0
 11
416.3048537223341
 21
157.4096145240881
 31
0.0
  0
LINE
  5
31
330
2D
100
AcDbEntity
  8
标注
370
    -2
100
AcDbLine
 10
415.984853722334
 20
177.4997720044059
 30
0.0
 11
415.984853722334
 21
169.9838599309136
 31
0.0
  0
LINE
  5
32
330
2D
100
AcDbEntity
  8
标注
370
    -2
100
AcDbLine
 10
415.984853722334
 20
158.0596145240881
 30
0.0
 11
415.984853722334
 21
165.5755265975803
 31
0.0
  0
SOLID
  5
33
330
2D
100
AcDbEntity
  8
标注
100
AcDbTrace
 10
415.8765203890007
 20
177.4997720044059
 30
0.0
 11
416.0931870556674
 21
177.4997720044059
 31
0.0
 12
415.984853722334
 22
178.1497720044059
 32
0.0
 13
415.984853722334
 23
178.1497720044059
 33
0.0
  0
SOLID
  5
34
330
2D
100
AcDbEntity
  8
标注
100
AcDbTrace
 10
415.8765203890007
 20
158.0596145240881
 30
0.0
 11
416.0931870556674
 21
158.0596145240881
 31
0.0
 12
415.984853722334
 22
157.4096145240881
 32
0.0
 13
415.984853722334
 23
157.4096145240881
 33
0.0
  0
MTEXT
  5
35
330
2D
100
AcDbEntity
  8
标注
100
AcDbMText
 10
415.984853722334
 20
167.779693264247
 30
0.0
 40
0.65
 41
0.0
 71
     5
 72
     1
  1
\A1;20 3/4"
 11
0.0000000000000001
 21
1.0
 31
0.0
 73
     1
 44
1.0
  0
POINT
  5
36
330
2D
100
AcDbEntity
  8
Defpoints
 62
     0
100
AcDbPoint
 10
406.1478305157853
 20
178.1497720044059
 30
0.0
  0
POINT
  5
37
330
2D
100
AcDbEntity
  8
Defpoints
 62
     0
100
AcDbPoint
 10
406.1478305157853
 20
157.4096145240881
 30
0.0
  0
POINT
  5
38
330
2D
100
AcDbEntity
  8
Defpoints
 62
     0
100
AcDbPoint
 10
415.984853722334
 20
157.4096145240881
 30
0.0
  0
ENDBLK
  5
39
330
2D
100
AcDbEntity
  8
0
100
AcDbBlockEnd
  0
BLOCK
  5
3B
330
3A
100
AcDbEntity
  8
0
100
AcDbBlockBegin
  2
*D2
 70
     1
 10
0.0
 20
0.0
 30
0.0
  3
*D2
  1

  0
LINE
  5
3C
330
3A
100
AcDbEntity
  8
标注
370
    -2
100
AcDbLine
 10
378.1969643740532
 20
195.1899372100287
 30
0.0
 11
376.0650622813532
 21
195.1899372100287
 31
0.0
  0
LINE
  5
3D
330
3A
100
AcDbEntity
  8
标注
370
    -2
100
AcDbLine
 10
383.7444271923531
 20
187.7214332730185
 30
0.0
 11
376.0650622813532
 21
187.7214332730185
 31
0.0
  0
LINE
  5
3E
330
3A
100
AcDbEntity
  8
标注
370
    -2
100
AcDbLine
 10
376.3850622813531
 20
194.5399372100287
 30
0.0
 11
376.3850622813531
 21
193.2806852415236
 31
0.0
  0
LINE
  5
3F
330
3A
100
AcDbEntity
  8
标注
370
    -2
100
AcDbLine
 10
376.3850622813531
 20
188.3714332730185
 30
0.0
 11
376.3850622813531
 21
189.6306852415236
 31
0.0
  0
SOLID
  5
40
330
3A
100
AcDbEntity
  8
标注
100
AcDbTrace
 10
376.2767289480198
 20
194.5399372100287
 30
0.0
 11
376.4933956146865
 21
194.5399372100287
 31
0.0
 12
376.3850622813531
 22
195.1899372100287
 32
0.0
 13
376.3850622813531
 23
195.1899372100287
 33
0.0
  0
SOLID
  5
41
330
3A
100
AcDbEntity
  8
标注
100
AcDbTrace
 10
376.2767289480198
 20
188.3714332730185
 30
0.0
 11
376.4933956146865
 21
188.3714332730185
 31
0.0
 12
376.3850622813531
 22
187.7214332730185
 32
0.0
 13
376.3850622813531
 23
187.7214332730185
 33
0.0
  0
MTEXT
  5
42
330
3A
100
AcDbEntity
  8
标注
100
AcDbMText
 10
376.3850622813531
 20
191.4556852415237
 30
0.0
 40
0.65
 41
0.0
 71
     5
 72
     1
  1
\A1;7 1/2"
 11
0.0000000000000001
 21
1.0
 31
0.0
 73
     1
 44
1.0
  0
POINT
  5
43
330
3A
100
AcDbEntity
  8
Defpoints
 62
     0
100
AcDbPoint
 10
379.0769643740532
 20
195.1899372100287
 30
0.0
  0
POINT
  5
44
330
3A
100
AcDbEntity
  8
Defpoints
 62
     0
100
AcDbPoint
 10
384.6244271923531
 20
187.7214332730185
 30
0.0
  0
POINT
  5
45
330
3A
100
AcDbEntity
  8
Defpoints
 62
     0
100
AcDbPoint
 10
376.3850622813531
 20
187.7214332730185
 30
0.0
  0
ENDBLK
  5
46
330
3A
100
AcDbEntity
  8
0
100
AcDbBlockEnd
  0
BLOCK
  5
48
330
47
100
AcDbEntity
  8
0
100
AcDbBlockBegin
  2
*D3
 70
     1
 10
0.0
 20
0.0
 30
0.0
  3
*D3
  1

  0
LINE
  5
49
330
47
100
AcDbEntity
  8
标注
370
    -2
100
AcDbLine
 10
403.090822641723
 20
177.1497720044059
 30
0.0
 11
413.8668928861417
 21
177.1497720044059
 31
0.0
  0
LINE
  5
4A
330
47
100
AcDbEntity
  8
标注
370
    -2
100
AcDbLine
 10
403.090822641696
 20
158.409614524091
 30
0.0
 11
413.8668928861417
 21
158.409614524091
 31
0.0
  0
LINE
  5
4B
330
47
100
AcDbEntity
  8
标注
370
    -2
100
AcDbLine
 10
413.5468928861416
 20
176.4997720044059
 30
0.0
 11
413.5468928861416
 21
169.9296932642484
 31
0.0
  0
LINE
  5
4C
330
47
100
AcDbEntity
  8
标注
370
    -2
100
AcDbLine
 10
413.5468928861416
 20
159.059614524091
 30
0.0
 11
413.5468928861416
 21
165.6296932642484
 31
0.0
  0
SOLID
  5
4D
330
47
100
AcDbEntity
  8
标注
100
AcDbTrace
 10
413.4385595528083
 20
176.4997720044059
 30
0.0
 11
413.655226219475
 21
176.4997720044059
 31
0.0
 12
413.5468928861416
 22
177.1497720044059
 32
0.0
 13
413.5468928861416
 23
177.1497720044059
 33
0.0
  0
SOLID
  5
4E
330
47
100
AcDbEntity
  8
标注
100
AcDbTrace
 10
413.4385595528083
 20
159.059614524091
 30
0.0
 11
413.655226219475
 21
159.059614524091
 31
0.0
 12
413.5468928861416
 22
158.409614524091
 32
0.0
 13
413.5468928861416
 23
158.409614524091
 33
0.0
  0
MTEXT
  5
4F
330
47
100
AcDbEntity
  8
标注
100
AcDbMText
 10
413.5468928861416
 20
167.7796932642485
 30
0.0
 40
0.65
 41
0.0
 71
     5
 72
     1
  1
\A1;18 3/4"
 11
0.0000000000000001
 21
1.0
 31
0.0
 73
     1
 44
1.0
  0
POINT
  5
50
330
47
100
AcDbEntity
  8
Defpoints
 62
     0
100
AcDbPoint
 10
402.210822641723
 20
177.1497720044059
 30
0.0
  0
POINT
  5
51
330
47
100
AcDbEntity
  8
Defpoints
 62
     0
100
AcDbPoint
 10
402.210822641696
 20
158.409614524091
 30
0.0
  0
POINT
  5
52
330
47
100
AcDbEntity
  8
Defpoints
 62
     0
100
AcDbPoint
 10
413.5468928861416
 20
158.409614524091
 30
0.0
  0
ENDBLK
  5
53
330
47
100
AcDbEntity
  8
0
100
AcDbBlockEnd
  0
BLOCK
  5
55
330
54
100
AcDbEntity
  8
0
100
AcDbBlockBegin
  2
*D4
 70
     1
 10
0.0
 20
0.0
 30
0.0
  3
*D4
  1

  0
LINE
  5
56
330
54
100
AcDbEntity
  8
标注
370
    -2
100
AcDbLine
 10
385.6930273661792
 20
174.9450475949686
 30
0.0
 11
376.0248467579627
 21
174.9450475949686
 31
0.0
  0
LINE
  5
57
330
54
100
AcDbEntity
  8
标注
370
    -2
100
AcDbLine
 10
385.6930273661792
 20
158.4096145241025
 30
0.0
 11
376.0248467579627
 21
158.4096145241025
 31
0.0
  0
LINE
  5
58
330
54
100
AcDbEntity
  8
标注
370
    -2
100
AcDbLine
 10
376.3448467579627
 20
174.2950475949686
 30
0.0
 11
376.3448467579627
 21
168.7189977262021
 31
0.0
  0
LINE
  5
59
330
54
100
AcDbEntity
  8
标注
370
    -2
100
AcDbLine
 10
376.3448467579627
 20
159.0596145241025
 30
0.0
 11
376.3448467579627
 21
164.6356643928688
 31
0.0
  0
SOLID
  5
5A
330
54
100
AcDbEntity
  8
标注
100
AcDbTrace
 10
376.2365134246293
 20
174.2950475949686
 30
0.0
 11
376.453180091296
 21
174.2950475949686
 31
0.0
 12
376.3448467579627
 22
174.9450475949686
 32
0.0
 13
376.3448467579627
 23
174.9450475949686
 33
0.0
  0
SOLID
  5
5B
330
54
100
AcDbEntity
  8
标注
100
AcDbTrace
 10
376.2365134246293
 20
159.0596145241025
 30
0.0
 11
376.453180091296
 21
159.0596145241025
 31
0.0
 12
376.3448467579627
 22
158.4096145241025
 32
0.0
 13
376.3448467579627
 23
158.4096145241025
 33
0.0
  0
MTEXT
  5
5C
330
54
100
AcDbEntity
  8
标注
100
AcDbMText
 10
376.3448467579626
 20
166.6773310595355
 30
0.0
 40
0.65
 41
0.0
 71
     5
 72
     1
  1
\A1;16 1/2"
 11
0.0000000000000001
 21
1.0
 31
0.0
 73
     1
 44
1.0
  0
POINT
  5
5D
330
54
100
AcDbEntity
  8
Defpoints
 62
     0
100
AcDbPoint
 10
386.5730273661792
 20
174.9450475949686
 30
0.0
  0
POINT
  5
5E
330
54
100
AcDbEntity
  8
Defpoints
 62
     0
100
AcDbPoint
 10
386.5730273661792
 20
158.4096145241025
 30
0.0
  0
POINT
  5
5F
330
54
100
AcDbEntity
  8
Defpoints
 62
     0
100
AcDbPoint
 10
376.3448467579627
 20
158.4096145241025
 30
0.0
  0
ENDBLK
  5
60
330
54
100
AcDbEntity
  8
0
100
AcDbBlockEnd
  0
BLOCK
  5
62
330
61
100
AcDbEntity
  8
0
100
AcDbBlockBegin
  2
*D5
 70
     1
 10
0.0
 20
0.0
 30
0.0
  3
*D5
  1

  0
LINE
  5
63
330
61
100
AcDbEntity
  8
标注
370
    -2
100
AcDbLine
 10
382.7402714606673
 20
175.9450475949687
 30
0.0
 11
373.6836858425663
 21
175.9450475949687
 31
0.0
  0
LINE
  5
64
330
61
100
AcDbEntity
  8
标注
370
    -2
100
AcDbLine
 10
382.7402714606673
 20
157.4096145241047
 30
0.0
 11
373.6836858425663
 21
157.4096145241047
 31
0.0
  0
LINE
  5
65
330
61
100
AcDbEntity
  8
标注
370
    -2
100
AcDbLine
 10
374.0036858425663
 20
175.2950475949687
 30
0.0
 11
374.0036858425663
 21
168.7189977262033
 31
0.0
  0
LINE
  5
66
330
61
100
AcDbEntity
  8
标注
370
    -2
100
AcDbLine
 10
374.0036858425663
 20
158.0596145241047
 30
0.0
 11
374.0036858425663
 21
164.63566439287
 31
0.0
  0
SOLID
  5
67
330
61
100
AcDbEntity
  8
标注
100
AcDbTrace
 10
373.895352509233
 20
175.2950475949687
 30
0.0
 11
374.1120191758997
 21
175.2950475949687
 31
0.0
 12
374.0036858425663
 22
175.9450475949687
 32
0.0
 13
374.0036858425663
 23
175.9450475949687
 33
0.0
  0
SOLID
  5
68
330
61
100
AcDbEntity
  8
标注
100
AcDbTrace
 10
373.895352509233
 20
158.0596145241047
 30
0.0
 11
374.1120191758997
 21
158.0596145241047
 31
0.0
 12
374.0036858425663
 22
157.4096145241047
 32
0.0
 13
374.0036858425663
 23
157.4096145241047
 33
0.0
  0
MTEXT
  5
69
330
61
100
AcDbEntity
  8
标注
100
AcDbMText
 10
374.0036858425662
 20
166.6773310595367
 30
0.0
 40
0.65
 41
0.0
 71
     5
 72
     1
  1
\A1;18 1/2"
 11
0.0000000000000001
 21
1.0
 31
0.0
 73
     1
 44
1.0
  0
POINT
  5
6A
330
61
100
AcDbEntity
  8
Defpoints
 62
     0
100
AcDbPoint
 10
383.6202714606674
 20
175.9450475949687
 30
0.0
  0
POINT
  5
6B
330
61
100
AcDbEntity
  8
Defpoints
 62
     0
100
AcDbPoint
 10
383.6202714606674
 20
157.4096145241047
 30
0.0
  0
POINT
  5
6C
330
61
100
AcDbEntity
  8
Defpoints
 62
     0
100
AcDbPoint
 10
374.0036858425663
 20
157.4096145241047
 30
0.0
  0
ENDBLK
  5
6D
330
61
100
AcDbEntity
  8
0
100
AcDbBlockEnd
  0
BLOCK
  5
6F
330
6E
100
AcDbEntity
  8
0
100
AcDbBlockBegin
  2
*D6
 70
     1
 10
0.0
 20
0.0
 30
0.0
  3
*D6
  1

  0
LINE
  5
70
330
6E
100
AcDbEntity
  8
标注
370
    -2
100
AcDbLine
 10
410.0848383898012
 20
166.8996932642485
 30
0.0
 11
410.0848383898012
 21
154.7354891656021
 31
0.0
  0
LINE
  5
71
330
6E
100
AcDbEntity
  8
标注
370
    -2
100
AcDbLine
 10
394.3368068937383
 20
166.8996932642485
 30
0.0
 11
394.3368068937383
 21
154.7354891656021
 31
0.0
  0
LINE
  5
72
330
6E
100
AcDbEntity
  8
标注
370
    -2
100
AcDbLine
 10
409.4348383898013
 20
155.0554891656021
 30
0.0
 11
404.3608226417697
 21
155.0554891656021
 31
0.0
  0
LINE
  5
73
330
6E
100
AcDbEntity
  8
标注
370
    -2
100
AcDbLine
 10
394.9868068937383
 20
155.0554891656021
 30
0.0
 11
400.0608226417697
 21
155.0554891656021
 31
0.0
  0
SOLID
  5
74
330
6E
100
AcDbEntity
  8
标注
100
AcDbTrace
 10
409.4348383898013
 20
155.1638224989354
 30
0.0
 11
409.4348383898013
 21
154.9471558322688
 31
0.0
 12
410.0848383898012
 22
155.0554891656021
 32
0.0
 13
410.0848383898012
 23
155.0554891656021
 33
0.0
  0
SOLID
  5
75
330
6E
100
AcDbEntity
  8
标注
100
AcDbTrace
 10
394.9868068937383
 20
155.1638224989354
 30
0.0
 11
394.9868068937383
 21
154.9471558322688
 31
0.0
 12
394.3368068937383
 22
155.0554891656021
 32
0.0
 13
394.3368068937383
 23
155.0554891656021
 33
0.0
  0
MTEXT
  5
76
330
6E
100
AcDbEntity
  8
标注
100
AcDbMText
 10
402.2108226417698
 20
155.0554891656021
 30
0.0
 40
0.65
 41
0.0
 71
     5
 72
     1
  1
\A1;15 3/4"
 73
     1
 44
1.0
  0
POINT
  5
77
330
6E
100
AcDbEntity
  8
Defpoints
 62
     0
100
AcDbPoint
 10
410.0848383898012
 20
167.7796932642485
 30
0.0
  0
POINT
  5
78
330
6E
100
AcDbEntity
  8
Defpoints
 62
     0
100
AcDbPoint
 10
394.3368068937383
 20
167.7796932642485
 30
0.0
  0
POINT
  5
79
330
6E
100
AcDbEntity
  8
Defpoints
 62
     0
100
AcDbPoint
 10
394.3368068937383
 20
155.0554891656021
 30
0.0
  0
ENDBLK
  5
7A
330
6E
100
AcDbEntity
  8
0
100
AcDbBlockEnd
  0
BLOCK
  5
7C
330
7B
100
AcDbEntity
  8
0
100
AcDbBlockBegin
  2
*D7
 70
     1
 10
0.0
 20
0.0
 30
0.0
  3
*D7
  1

  0
LINE
  5
7D
330
7B
100
AcDbEntity
  8
标注
370
    -2
100
AcDbLine
 10
393.0690903583052
 20
165.7973310595366
 30
0.0
 11
393.0690903583052
 21
154.7314797938872
 31
0.0
  0
LINE
  5
7E
330
7B
100
AcDbEntity
  8
标注
370
    -2
100
AcDbLine
 10
380.0769643740532
 20
165.7973310595356
 30
0.0
 11
380.0769643740532
 21
154.7314797938872
 31
0.0
  0
LINE
  5
7F
330
7B
100
AcDbEntity
  8
标注
370
    -2
100
AcDbLine
 10
392.4190903583052
 20
155.0514797938872
 30
0.0
 11
387.4230273661792
 21
155.0514797938872
 31
0.0
  0
LINE
  5
80
330
7B
100
AcDbEntity
  8
标注
370
    -2
100
AcDbLine
 10
380.7269643740532
 20
155.0514797938872
 30
0.0
 11
385.7230273661792
 21
155.0514797938872
 31
0.0
  0
SOLID
  5
81
330
7B
100
AcDbEntity
  8
标注
100
AcDbTrace
 10
392.4190903583052
 20
155.1598131272205
 30
0.0
 11
392.4190903583052
 21
154.9431464605538
 31
0.0
 12
393.0690903583052
 22
155.0514797938872
 32
0.0
 13
393.0690903583052
 23
155.0514797938872
 33
0.0
  0
SOLID
  5
82
330
7B
100
AcDbEntity
  8
标注
100
AcDbTrace
 10
380.7269643740532
 20
155.1598131272205
 30
0.0
 11
380.7269643740532
 21
154.9431464605538
 31
0.0
 12
380.0769643740532
 22
155.0514797938872
 32
0.0
 13
380.0769643740532
 23
155.0514797938872
 33
0.0
  0
MTEXT
  5
83
330
7B
100
AcDbEntity
  8
标注
100
AcDbMText
 10
386.5730273661792
 20
155.0514797938872
 30
0.0
 40
0.65
 41
0.0
 71
     5
 72
     1
  1
\A1;13"
 73
     1
 44
1.0
  0
POINT
  5
84
330
7B
100
AcDbEntity
  8
Defpoints
 62
     0
100
AcDbPoint
 10
393.0690903583052
 20
166.6773310595366
 30
0.0
  0
POINT
  5
85
330
7B
100
AcDbEntity
  8
Defpoints
 62
     0
100
AcDbPoint
 10
380.0769643740532
 20
166.6773310595356
 30
0.0
  0
POINT
  5
86
330
7B
100
AcDbEntity
  8
Defpoints
 62
     0
100
AcDbPoint
 10
380.0769643740532
 20
155.0514797938872
 30
0.0
  0
ENDBLK
  5
87
330
7B
100
AcDbEntity
  8
0
100
AcDbBlockEnd
  0
BLOCK
  5
89
330
88
100
AcDbEntity
  8
0
100
AcDbBlockBegin
  2
*D8
 70
     1
 10
0.0
 20
0.0
 30
0.0
  3
*D8
  1

  0
LINE
  5
8A
330
88
100
AcDbEntity
  8
标注
370
    -2
100
AcDbLine
 10
411.084838389801
 20
161.4666223981038
 30
0.0
 11
411.084838389801
 21
152.488081526451
 31
0.0
  0
LINE
  5
8B
330
88
100
AcDbEntity
  8
标注
370
    -2
100
AcDbLine
 10
379.0769643740532
 20
161.0729216107189
 30
0.0
 11
379.0769643740532
 21
152.488081526451
 31
0.0
  0
LINE
  5
8C
330
88
100
AcDbEntity
  8
标注
370
    -2
100
AcDbLine
 10
410.4348383898011
 20
152.808081526451
 30
0.0
 11
396.0392347152604
 21
152.808081526451
 31
0.0
  0
LINE
  5
8D
330
88
100
AcDbEntity
  8
标注
370
    -2
100
AcDbLine
 10
379.7269643740532
 20
152.808081526451
 30
0.0
 11
394.1225680485938
 21
152.808081526451
 31
0.0
  0
SOLID
  5
8E
330
88
100
AcDbEntity
  8
标注
100
AcDbTrace
 10
410.4348383898011
 20
152.9164148597843
 30
0.0
 11
410.4348383898011
 21
152.6997481931176
 31
0.0
 12
411.084838389801
 22
152.808081526451
 32
0.0
 13
411.084838389801
 23
152.808081526451
 33
0.0
  0
SOLID
  5
8F
330
88
100
AcDbEntity
  8
标注
100
AcDbTrace
 10
379.7269643740532
 20
152.9164148597843
 30
0.0
 11
379.7269643740532
 21
152.6997481931176
 31
0.0
 12
379.0769643740532
 22
152.808081526451
 32
0.0
 13
379.0769643740532
 23
152.808081526451
 33
0.0
  0
MTEXT
  5
90
330
88
100
AcDbEntity
  8
标注
100
AcDbMText
 10
395.0809013819271
 20
152.808081526451
 30
0.0
 40
0.65
 41
0.0
 71
     5
 72
     1
  1
\A1;32"
 73
     1
 44
1.0
  0
POINT
  5
91
330
88
100
AcDbEntity
  8
Defpoints
 62
     0
100
AcDbPoint
 10
411.084838389801
 20
162.3466223981038
 30
0.0
  0
POINT
  5
92
330
88
100
AcDbEntity
  8
Defpoints
 62
     0
100
AcDbPoint
 10
379.0769643740532
 20
161.9529216107189
 30
0.0
  0
POINT
  5
93
330
88
100
AcDbEntity
  8
Defpoints
 62
     0
100
AcDbPoint
 10
379.0769643740532
 20
152.808081526451
 30
0.0
  0
ENDBLK
  5
94
330
88
100
AcDbEntity
  8
0
100
AcDbBlockEnd
  0
BLOCK
  5
96
330
95
100
AcDbEntity
  8
0
100
AcDbBlockBegin
  2
*D9
 70
     1
 10
0.0
 20
0.0
 30
0.0
  3
*D9
  1

  0
LINE
  5
97
330
95
100
AcDbEntity
  8
标注
370
    -2
100
AcDbLine
 10
396.4631943707655
 20
160.7984281803391
 30
0.0
 11
395.9653630588314
 21
160.380499974952
 31
0.0
  0
MTEXT
  5
98
330
95
100
AcDbEntity
  8
标注
100
AcDbMText
 10
398.1928390571003
 20
162.2504607913633
 30
0.0
 40
0.65
 41
0.0
 71
     5
 72
     1
  1
\A1;R3 7/8"
 11
0.7658943260523327
 21
0.6429664698262605
 31
0.0
 73
     1
 44
1.0
  0
SOLID
  5
99
330
95
100
AcDbEntity
  8
标注
100
AcDbTrace
 10
395.8957083579336
 20
160.4634718602743
 30
0.0
 11
396.0350177597293
 21
160.2975280896297
 31
0.0
 12
395.4675317468974
 22
159.9625717695649
 32
0.0
 13
395.4675317468974
 23
159.9625717695649
 33
0.0
  0
POINT
  5
9A
330
95
100
AcDbEntity
  8
Defpoints
 62
     0
100
AcDbPoint
 10
395.4675317468974
 20
159.9625717695649
 30
0.0
  0
POINT
  5
9B
330
95
100
AcDbEntity
  8
Defpoints
 62
     0
100
AcDbPoint
 10
398.4828637392295
 20
162.493935823999
 30
0.0
  0
ENDBLK
  5
9C
330
95
100
AcDbEntity
  8
0
100
AcDbBlockEnd
  0
BLOCK
  5
9E
330
9D
100
AcDbEntity
  8
0
100
AcDbBlockBegin
  2
*D10
 70
     1
 10
0.0
 20
0.0
 30
0.0
  3
*D10
  1

  0
LINE
  5
9F
330
9D
100
AcDbEntity
  8
标注
370
    -2
100
AcDbLine
 10
382.1220613221904
 20
160.6464114452224
 30
0.0
 11
381.6237134107929
 21
160.2290993806881
 31
0.0
  0
MTEXT
  5
A0
330
9D
100
AcDbEntity
  8
标注
100
AcDbMText
 10
383.770442875274
 20
162.0267513509897
 30
0.0
 40
0.65
 41
0.0
 71
     5
 72
     1
  1
\A1;R3 1/2"
 11
0.7666890944574864
 21
0.6420185608220059
 31
0.0
 73
     1
 44
1.0
  0
SOLID
  5
A1
330
9D
100
AcDbEntity
  8
标注
100
AcDbTrace
 10
381.5541614000372
 20
160.3121573659209
 30
0.0
 11
381.6932654215486
 21
160.1460413954552
 31
0.0
 12
381.1253654993956
 22
159.8117873161538
 32
0.0
 13
381.1253654993956
 23
159.8117873161538
 33
0.0
  0
POINT
  5
A2
330
9D
100
AcDbEntity
  8
Defpoints
 62
     0
100
AcDbPoint
 10
381.1253654993956
 20
159.8117873161538
 30
0.0
  0
POINT
  5
A3
330
9D
100
AcDbEntity
  8
Defpoints
 62
     0
100
AcDbPoint
 10
383.8419804010166
 20
162.0866562324522
 30
0.0
  0
ENDBLK
  5
A4
330
9D
100
AcDbEntity
  8
0
100
AcDbBlockEnd
  0
BLOCK
  5
A6
330
A5
100
AcDbEntity
  8
0
100
AcDbBlockBegin
  2
*D11
 70
     1
 10
0.0
 20
0.0
 30
0.0
  3
*D11
  1

  0
LINE
  5
A7
330
A5
100
AcDbEntity
  8
标注
370
    -2
100
AcDbLine
 10
410.0848383898012
 20
166.8996932642485
 30
0.0
 11
410.0848383898012
 21
154.7354891656021
 31
0.0
  0
LINE
  5
A8
330
A5
100
AcDbEntity
  8
标注
370
    -2
100
AcDbLine
 10
411.084838389801
 20
161.4666223981038
 30
0.0
 11
411.084838389801
 21
154.7354891656021
 31
0.0
  0
LINE
  5
A9
330
A5
100
AcDbEntity
  8
标注
370
    -2
100
AcDbLine
 10
409.4348383898013
 20
155.0554891656021
 30
0.0
 11
408.7848383898012
 21
155.0554891656021
 31
0.0
  0
LINE
  5
AA
330
A5
100
AcDbEntity
  8
标注
370
    -2
100
AcDbLine
 10
411.734838389801
 20
155.0554891656021
 30
0.0
 11
412.3848383898011
 21
155.0554891656021
 31
0.0
  0
LINE
  5
AB
330
A5
100
AcDbEntity
  8
标注
370
    -2
100
AcDbLine
 10
410.0848383898012
 20
155.0554891656021
 30
0.0
 11
411.084838389801
 21
155.0554891656021
 31
0.0
  0
SOLID
  5
AC
330
A5
100
AcDbEntity
  8
标注
100
AcDbTrace
 10
409.4348383898013
 20
155.1638224989354
 30
0.0
 11
409.4348383898013
 21
154.9471558322688
 31
0.0
 12
410.0848383898012
 22
155.0554891656021
 32
0.0
 13
410.0848383898012
 23
155.0554891656021
 33
0.0
  0
SOLID
  5
AD
330
A5
100
AcDbEntity
  8
标注
100
AcDbTrace
 10
411.734838389801
 20
155.1638224989354
 30
0.0
 11
411.734838389801
 21
154.9471558322688
 31
0.0
 12
411.084838389801
 22
155.0554891656021
 32
0.0
 13
411.084838389801
 23
155.0554891656021
 33
0.0
  0
MTEXT
  5
AE
330
A5
100
AcDbEntity
  8
标注
100
AcDbMText
 10
412.9098383898011
 20
155.0554891656021
 30
0.0
 40
0.65
 41
0.0
 71
     5
 72
     1
  1
\A1;1"
 73
     1
 44
1.0
  0
POINT
  5
AF
330
A5
100
AcDbEntity
  8
Defpoints
 62
     0
100
AcDbPoint
 10
410.0848383898012
 20
167.7796932642485
 30
0.0
  0
POINT
  5
B0
330
A5
100
AcDbEntity
  8
Defpoints
 62
     0
100
AcDbPoint
 10
411.084838389801
 20
162.3466223981038
 30
0.0
  0
POINT
  5
B1
330
A5
100
AcDbEntity
  8
Defpoints
 62
     0
100
AcDbPoint
 10
411.084838389801
 20
155.0554891656021
 30
0.0
  0
ENDBLK
  5
B2
330
A5
100
AcDbEntity
  8
0
100
AcDbBlockEnd
  0
BLOCK
  5
B4
330
B3
100
AcDbEntity
  8
0
100
AcDbBlockBegin
  2
*D12
 70
     1
 10
0.0
 20
0.0
 30
0.0
  3
*D12
  1

  0
LINE
  5
B5
330
B3
100
AcDbEntity
  8
标注
370
    -2
100
AcDbLine
 10
393.0690903583053
 20
167.5573310595366
 30
0.0
 11
393.0690903583053
 21
167.2196932642485
 31
0.0
  0
LINE
  5
B6
330
B3
100
AcDbEntity
  8
标注
370
    -2
100
AcDbLine
 10
394.3368068937383
 20
167.5573310595366
 30
0.0
 11
394.3368068937383
 21
167.2196932642485
 31
0.0
  0
LINE
  5
B7
330
B3
100
AcDbEntity
  8
标注
370
    -2
100
AcDbLine
 10
392.4190903583053
 20
166.8996932642485
 30
0.0
 11
391.7690903583052
 21
166.8996932642485
 31
0.0
  0
LINE
  5
B8
330
B3
100
AcDbEntity
  8
标注
370
    -2
100
AcDbLine
 10
394.9868068937383
 20
166.8996932642485
 30
0.0
 11
395.6368068937383
 21
166.8996932642485
 31
0.0
  0
LINE
  5
B9
330
B3
100
AcDbEntity
  8
标注
370
    -2
100
AcDbLine
 10
393.0690903583053
 20
166.8996932642485
 30
0.0
 11
394.3368068937383
 21
166.8996932642485
 31
0.0
  0
SOLID
  5
BA
330
B3
100
AcDbEntity
  8
标注
100
AcDbTrace
 10
392.4190903583053
 20
167.0080265975818
 30
0.0
 11
392.4190903583053
 21
166.7913599309152
 31
0.0
 12
393.0690903583053
 22
166.8996932642485
 32
0.0
 13
393.0690903583053
 23
166.8996932642485
 33
0.0
  0
SOLID
  5
BB
330
B3
100
AcDbEntity
  8
标注
100
AcDbTrace
 10
394.9868068937383
 20
167.0080265975818
 30
0.0
 11
394.9868068937383
 21
166.7913599309152
 31
0.0
 12
394.3368068937383
 22
166.8996932642485
 32
0.0
 13
394.3368068937383
 23
166.8996932642485
 33
0.0
  0
MTEXT
  5
BC
330
B3
100
AcDbEntity
  8
标注
100
AcDbMText
 10
397.3534735604049
 20
166.8996932642485
 30
0.0
 40
0.65
 41
0.0
 71
     5
 72
     1
  1
\A1;1 1/4"
 73
     1
 44
1.0
  0
POINT
  5
BD
330
B3
100
AcDbEntity
  8
Defpoints
 62
     0
100
AcDbPoint
 10
393.0690903583053
 20
166.6773310595366
 30
0.0
  0
POINT
  5
BE
330
B3
100
AcDbEntity
  8
Defpoints
 62
     0
100
AcDbPoint
 10
394.3368068937383
 20
166.6773310595366
 30
0.0
  0
POINT
  5
BF
330
B3
100
AcDbEntity
  8
Defpoints
 62
     0
100
AcDbPoint
 10
394.3368068937383
 20
166.8996932642485
 30
0.0
  0
ENDBLK
  5
C0
330
B3
100
AcDbEntity
  8
0
100
AcDbBlockEnd
  0
BLOCK
  5
C2
330
C1
100
AcDbEntity
  8
0
100
AcDbBlockBegin
  2
*D13
 70
     1
 10
0.0
 20
0.0
 30
0.0
  3
*D13
  1

  0
LINE
  5
C3
330
C1
100
AcDbEntity
  8
标注
370
    -2
100
AcDbLine
 10
403.970822641723
 20
177.1497720044059
 30
0.0
 11
413.8668928861417
 21
177.1497720044059
 31
0.0
  0
LINE
  5
C4
330
C1
100
AcDbEntity
  8
标注
370
    -2
100
AcDbLine
 10
407.0278305157853
 20
178.1497720044059
 30
0.0
 11
413.8668928861417
 21
178.1497720044059
 31
0.0
  0
LINE
  5
C5
330
C1
100
AcDbEntity
  8
标注
370
    -2
100
AcDbLine
 10
413.5468928861416
 20
176.4997720044059
 30
0.0
 11
413.5468928861416
 21
175.8497720044059
 31
0.0
  0
LINE
  5
C6
330
C1
100
AcDbEntity
  8
标注
370
    -2
100
AcDbLine
 10
413.5468928861416
 20
178.7997720044059
 30
0.0
 11
413.5468928861416
 21
179.4497720044059
 31
0.0
  0
LINE
  5
C7
330
C1
100
AcDbEntity
  8
标注
370
    -2
100
AcDbLine
 10
413.5468928861416
 20
177.1497720044059
 30
0.0
 11
413.5468928861416
 21
178.1497720044059
 31
0.0
  0
SOLID
  5
C8
330
C1
100
AcDbEntity
  8
标注
100
AcDbTrace
 10
413.4385595528083
 20
176.4997720044059
 30
0.0
 11
413.655226219475
 21
176.4997720044059
 31
0.0
 12
413.5468928861416
 22
177.1497720044059
 32
0.0
 13
413.5468928861416
 23
177.1497720044059
 33
0.0
  0
SOLID
  5
C9
330
C1
100
AcDbEntity
  8
标注
100
AcDbTrace
 10
413.4385595528083
 20
178.7997720044059
 30
0.0
 11
413.655226219475
 21
178.7997720044059
 31
0.0
 12
413.5468928861416
 22
178.1497720044059
 32
0.0
 13
413.5468928861416
 23
178.1497720044059
 33
0.0
  0
MTEXT
  5
CA
330
C1
100
AcDbEntity
  8
标注
100
AcDbMText
 10
413.5468928861416
 20
179.9747720044059
 30
0.0
 40
0.65
 41
0.0
 71
     5
 72
     1
  1
\A1;1"
 11
0.0000000000000001
 21
1.0
 31
0.0
 73
     1
 44
1.0
  0
POINT
  5
CB
330
C1
100
AcDbEntity
  8
Defpoints
 62
     0
100
AcDbPoint
 10
403.090822641723
 20
177.1497720044059
 30
0.0
  0
POINT
  5
CC
330
C1
100
AcDbEntity
  8
Defpoints
 62
     0
100
AcDbPoint
 10
406.1478305157853
 20
178.1497720044059
 30
0.0
  0
POINT
  5
CD
330
C1
100
AcDbEntity
  8
Defpoints
 62
     0
100
AcDbPoint
 10
413.5468928861416
 20
178.1497720044059
 30
0.0
  0
ENDBLK
  5
CE
330
C1
100
AcDbEntity
  8
0
100
AcDbBlockEnd
  0
BLOCK
  5
D0
330
CF
100
AcDbEntity
  8
0
100
AcDbBlockBegin
  2
*D14
 70
     1
 10
0.0
 20
0.0
 30
0.0
  3
*D14
  1

  0
LINE
  5
D1
330
CF
100
AcDbEntity
  8
标注
370
    -2
100
AcDbLine
 10
384.8130273661792
 20
158.4096145241025
 30
0.0
 11
376.0248467579627
 21
158.4096145241025
 31
0.0
  0
LINE
  5
D2
330
CF
100
AcDbEntity
  8
标注
370
    -2
100
AcDbLine
 10
382.740271460664
 20
157.4096145241047
 30
0.0
 11
376.0248467579627
 21
157.4096145241047
 31
0.0
  0
LINE
  5
D3
330
CF
100
AcDbEntity
  8
标注
370
    -2
100
AcDbLine
 10
376.3448467579627
 20
159.0596145241025
 30
0.0
 11
376.3448467579627
 21
159.7096145241025
 31
0.0
  0
LINE
  5
D4
330
CF
100
AcDbEntity
  8
标注
370
    -2
100
AcDbLine
 10
376.3448467579627
 20
156.7596145241047
 30
0.0
 11
376.3448467579627
 21
156.1096145241047
 31
0.0
  0
LINE
  5
D5
330
CF
100
AcDbEntity
  8
标注
370
    -2
100
AcDbLine
 10
376.3448467579627
 20
158.4096145241025
 30
0.0
 11
376.3448467579627
 21
157.4096145241047
 31
0.0
  0
SOLID
  5
D6
330
CF
100
AcDbEntity
  8
标注
100
AcDbTrace
 10
376.2365134246293
 20
159.0596145241025
 30
0.0
 11
376.453180091296
 21
159.0596145241025
 31
0.0
 12
376.3448467579627
 22
158.4096145241025
 32
0.0
 13
376.3448467579627
 23
158.4096145241025
 33
0.0
  0
SOLID
  5
D7
330
CF
100
AcDbEntity
  8
标注
100
AcDbTrace
 10
376.2365134246293
 20
156.7596145241047
 30
0.0
 11
376.453180091296
 21
156.7596145241047
 31
0.0
 12
376.3448467579627
 22
157.4096145241047
 32
0.0
 13
376.3448467579627
 23
157.4096145241047
 33
0.0
  0
MTEXT
  5
D8
330
CF
100
AcDbEntity
  8
标注
100
AcDbMText
 10
376.3448467579626
 20
155.5846145241048
 30
0.0
 40
0.65
 41
0.0
 71
     5
 72
     1
  1
\A1;1"
 11
0.0000000000000001
 21
1.0
 31
0.0
 73
     1
 44
1.0
  0
POINT
  5
D9
330
CF
100
AcDbEntity
  8
Defpoints
 62
     0
100
AcDbPoint
 10
385.6930273661792
 20
158.4096145241025
 30
0.0
  0
POINT
  5
DA
330
CF
100
AcDbEntity
  8
Defpoints
 62
     0
100
AcDbPoint
 10
383.620271460664
 20
157.4096145241047
 30
0.0
  0
POINT
  5
DB
330
CF
100
AcDbEntity
  8
Defpoints
 62
     0
100
AcDbPoint
 10
376.3448467579627
 20
157.4096145241047
 30
0.0
  0
ENDBLK
  5
DC
330
CF
100
AcDbEntity
  8
0
100
AcDbBlockEnd
  0
BLOCK
  5
DE
330
DD
100
AcDbEntity
  8
0
100
AcDbBlockBegin
  2
*D15
 70
     1
 10
0.0
 20
0.0
 30
0.0
  3
*D15
  1

  0
LINE
  5
DF
330
DD
100
AcDbEntity
  8
标注
370
    -2
100
AcDbLine
 10
381.7777953057845
 20
189.4580033462699
 30
0.0
 11
381.2507943712824
 21
189.0775167958716
 31
0.0
  0
MTEXT
  5
E0
330
DD
100
AcDbEntity
  8
标注
100
AcDbMText
 10
382.5547838630632
 20
190.0189771064724
 30
0.0
 40
0.65
 41
0.0
 71
     5
 72
     1
  1
\A1;R2"
 11
0.810770668464719
 21
0.5853639236895904
 31
0.0
 73
     1
 44
1.0
  0
SOLID
  5
E1
330
DD
100
AcDbEntity
  8
标注
100
AcDbTrace
 10
381.187379946216
 20
189.1653502849553
 30
0.0
 11
381.3142087963488
 21
188.9896833067879
 31
0.0
 12
380.7237934367803
 22
188.6970302454734
 32
0.0
 13
380.7237934367803
 23
188.6970302454734
 33
0.0
  0
POINT
  5
E2
330
DD
100
AcDbEntity
  8
Defpoints
 62
     0
100
AcDbPoint
 10
380.7237934367803
 20
188.6970302454734
 30
0.0
  0
POINT
  5
E3
330
DD
100
AcDbEntity
  8
Defpoints
 62
     0
100
AcDbPoint
 10
382.3453347737097
 20
189.8677580928525
 30
0.0
  0
ENDBLK
  5
E4
330
DD
100
AcDbEntity
  8
0
100
AcDbBlockEnd
  0
BLOCK
  5
E6
330
E5
100
AcDbEntity
  8
0
100
AcDbBlockBegin
  2
*D16
 70
     1
 10
0.0
 20
0.0
 30
0.0
  3
*D16
  1

  0
LINE
  5
E7
330
E5
100
AcDbEntity
  8
标注
370
    -2
100
AcDbLine
 10
396.0372869859617
 20
187.9846386845254
 30
0.0
 11
395.5219025176843
 21
187.5885593365931
 31
0.0
  0
MTEXT
  5
E8
330
E5
100
AcDbEntity
  8
标注
100
AcDbMText
 10
396.7971487020116
 20
188.5686018257078
 30
0.0
 40
0.65
 41
0.0
 71
     5
 72
     1
  1
\A1;R2"
 11
0.7928991819651401
 21
0.6093528429727818
 31
0.0
 73
     1
 44
1.0
  0
SOLID
  5
E9
330
E5
100
AcDbEntity
  8
标注
100
AcDbTrace
 10
395.4558892930289
 20
187.6744567479726
 30
0.0
 11
395.5879157423396
 21
187.5026619252135
 31
0.0
 12
395.006518049407
 22
187.1924799886608
 32
0.0
 13
395.006518049407
 23
187.1924799886608
 33
0.0
  0
POINT
  5
EA
330
E5
100
AcDbEntity
  8
Defpoints
 62
     0
100
AcDbPoint
 10
395.006518049407
 20
187.1924799886608
 30
0.0
  0
POINT
  5
EB
330
E5
100
AcDbEntity
  8
Defpoints
 62
     0
100
AcDbPoint
 10
396.5923164133372
 20
188.4111856746064
 30
0.0
  0
ENDBLK
  5
EC
330
E5
100
AcDbEntity
  8
0
100
AcDbBlockEnd
  0
BLOCK
  5
2E8
330
2DC
100
AcDbEntity
  8
0
100
AcDbBlockBegin
  2
*D18
 70
     1
 10
0.0
 20
0.0
 30
0.0
  3
*D18
  1

  0
LINE
  5
323
330
2DC
100
AcDbEntity
  8
标注
370
    -2
100
AcDbLine
 10
145.6725645583578
 20
209.5128721613436
 30
0.0
 11
155.5686348027764
 21
209.5128721613436
 31
0.0
  0
LINE
  5
324
330
2DC
100
AcDbEntity
  8
标注
370
    -2
100
AcDbLine
 10
148.7295724324201
 20
210.5128721613435
 30
0.0
 11
155.5686348027764
 21
210.5128721613435
 31
0.0
  0
LINE
  5
325
330
2DC
100
AcDbEntity
  8
标注
370
    -2
100
AcDbLine
 10
155.2486348027764
 20
208.8628721613436
 30
0.0
 11
155.2486348027764
 21
208.2128721613436
 31
0.0
  0
LINE
  5
326
330
2DC
100
AcDbEntity
  8
标注
370
    -2
100
AcDbLine
 10
155.2486348027764
 20
211.1628721613436
 30
0.0
 11
155.2486348027764
 21
211.8128721613435
 31
0.0
  0
LINE
  5
327
330
2DC
100
AcDbEntity
  8
标注
370
    -2
100
AcDbLine
 10
155.2486348027764
 20
209.5128721613436
 30
0.0
 11
155.2486348027764
 21
210.5128721613435
 31
0.0
  0
SOLID
  5
328
330
2DC
100
AcDbEntity
  8
标注
100
AcDbTrace
 10
155.1403014694431
 20
208.8628721613436
 30
0.0
 11
155.3569681361097
 21
208.8628721613436
 31
0.0
 12
155.2486348027764
 22
209.5128721613436
 32
0.0
 13
155.2486348027764
 23
209.5128721613436
 33
0.0
  0
SOLID
  5
329
330
2DC
100
AcDbEntity
  8
标注
100
AcDbTrace
 10
155.1403014694431
 20
211.1628721613436
 30
0.0
 11
155.3569681361097
 21
211.1628721613436
 31
0.0
 12
155.2486348027764
 22
210.5128721613435
 32
0.0
 13
155.2486348027764
 23
210.5128721613435
 33
0.0
  0
MTEXT
  5
32A
330
2DC
100
AcDbEntity
  8
标注
100
AcDbMText
 10
155.2486348027764
 20
212.3378721613436
 30
0.0
 40
0.65
 41
0.0
 71
     5
 72
     1
  1
\A1;1"
 11
0.0000000000000001
 21
1.0
 31
0.0
 73
     1
 44
1.0
  0
POINT
  5
32B
330
2DC
100
AcDbEntity
  8
Defpoints
 62
     0
100
AcDbPoint
 10
144.7925645583578
 20
209.5128721613436
 30
0.0
  0
POINT
  5
32C
330
2DC
100
AcDbEntity
  8
Defpoints
 62
     0
100
AcDbPoint
 10
147.8495724324201
 20
210.5128721613435
 30
0.0
  0
POINT
  5
32D
330
2DC
100
AcDbEntity
  8
Defpoints
 62
     0
100
AcDbPoint
 10
155.2486348027764
 20
210.5128721613435
 30
0.0
  0
ENDBLK
  5
2E9
330
2DC
100
AcDbEntity
  8
0
100
AcDbBlockEnd
  0
BLOCK
  5
2F6
330
2EA
100
AcDbEntity
  8
0
100
AcDbBlockBegin
  2
*D19
 70
     1
 10
0.0
 20
0.0
 30
0.0
  3
*D19
  1

  0
LINE
  5
33C
330
2EA
100
AcDbEntity
  8
标注
370
    -2
100
AcDbLine
 10
151.786580306436
 20
199.2627934211861
 30
0.0
 11
151.786580306436
 21
187.0985893225397
 31
0.0
  0
LINE
  5
33D
330
2EA
100
AcDbEntity
  8
标注
370
    -2
100
AcDbLine
 10
152.7865803064359
 20
193.8297225550414
 30
0.0
 11
152.7865803064359
 21
187.0985893225397
 31
0.0
  0
LINE
  5
33E
330
2EA
100
AcDbEntity
  8
标注
370
    -2
100
AcDbLine
 10
151.136580306436
 20
187.4185893225397
 30
0.0
 11
150.486580306436
 21
187.4185893225397
 31
0.0
  0
LINE
  5
33F
330
2EA
100
AcDbEntity
  8
标注
370
    -2
100
AcDbLine
 10
153.4365803064359
 20
187.4185893225397
 30
0.0
 11
154.0865803064358
 21
187.4185893225397
 31
0.0
  0
LINE
  5
340
330
2EA
100
AcDbEntity
  8
标注
370
    -2
100
AcDbLine
 10
151.786580306436
 20
187.4185893225397
 30
0.0
 11
152.7865803064359
 21
187.4185893225397
 31
0.0
  0
SOLID
  5
341
330
2EA
100
AcDbEntity
  8
标注
100
AcDbTrace
 10
151.136580306436
 20
187.5269226558731
 30
0.0
 11
151.136580306436
 21
187.3102559892064
 31
0.0
 12
151.786580306436
 22
187.4185893225397
 32
0.0
 13
151.786580306436
 23
187.4185893225397
 33
0.0
  0
SOLID
  5
342
330
2EA
100
AcDbEntity
  8
标注
100
AcDbTrace
 10
153.4365803064359
 20
187.5269226558731
 30
0.0
 11
153.4365803064359
 21
187.3102559892064
 31
0.0
 12
152.7865803064359
 22
187.4185893225397
 32
0.0
 13
152.7865803064359
 23
187.4185893225397
 33
0.0
  0
MTEXT
  5
343
330
2EA
100
AcDbEntity
  8
标注
100
AcDbMText
 10
154.6115803064359
 20
187.4185893225397
 30
0.0
 40
0.65
 41
0.0
 71
     5
 72
     1
  1
\A1;1"
 73
     1
 44
1.0
  0
POINT
  5
344
330
2EA
100
AcDbEntity
  8
Defpoints
 62
     0
100
AcDbPoint
 10
151.786580306436
 20
200.1427934211862
 30
0.0
  0
POINT
  5
345
330
2EA
100
AcDbEntity
  8
Defpoints
 62
     0
100
AcDbPoint
 10
152.7865803064359
 20
194.7097225550414
 30
0.0
  0
POINT
  5
346
330
2EA
100
AcDbEntity
  8
Defpoints
 62
     0
100
AcDbPoint
 10
152.7865803064359
 20
187.4185893225397
 30
0.0
  0
ENDBLK
  5
2F7
330
2EA
100
AcDbEntity
  8
0
100
AcDbBlockEnd
  0
BLOCK
  5
303
330
2F8
100
AcDbEntity
  8
0
100
AcDbBlockBegin
  2
*D20
 70
     1
 10
0.0
 20
0.0
 30
0.0
  3
*D20
  1

  0
LINE
  5
398
330
2F8
100
AcDbEntity
  8
标注
370
    -2
100
AcDbLine
 10
148.7295724324201
 20
210.5128721613435
 30
0.0
 11
158.0065956389688
 21
210.5128721613435
 31
0.0
  0
LINE
  5
399
330
2F8
100
AcDbEntity
  8
标注
370
    -2
100
AcDbLine
 10
148.7295724324201
 20
189.7727146810258
 30
0.0
 11
158.0065956389688
 21
189.7727146810258
 31
0.0
  0
LINE
  5
39A
330
2F8
100
AcDbEntity
  8
标注
370
    -2
100
AcDbLine
 10
157.6865956389688
 20
209.8628721613435
 30
0.0
 11
157.6865956389688
 21
202.3469600878513
 31
0.0
  0
LINE
  5
39B
330
2F8
100
AcDbEntity
  8
标注
370
    -2
100
AcDbLine
 10
157.6865956389688
 20
190.4227146810258
 30
0.0
 11
157.6865956389688
 21
197.9386267545179
 31
0.0
  0
SOLID
  5
39C
330
2F8
100
AcDbEntity
  8
标注
100
AcDbTrace
 10
157.5782623056355
 20
209.8628721613435
 30
0.0
 11
157.7949289723022
 21
209.8628721613435
 31
0.0
 12
157.6865956389688
 22
210.5128721613435
 32
0.0
 13
157.6865956389688
 23
210.5128721613435
 33
0.0
  0
SOLID
  5
39D
330
2F8
100
AcDbEntity
  8
标注
100
AcDbTrace
 10
157.5782623056355
 20
190.4227146810258
 30
0.0
 11
157.7949289723021
 21
190.4227146810258
 31
0.0
 12
157.6865956389688
 22
189.7727146810258
 32
0.0
 13
157.6865956389688
 23
189.7727146810258
 33
0.0
  0
MTEXT
  5
39E
330
2F8
100
AcDbEntity
  8
标注
100
AcDbMText
 10
157.6865956389688
 20
200.1427934211847
 30
0.0
 40
0.65
 41
0.0
 71
     5
 72
     1
  1
\A1;20 3/4"
 11
0.0000000000000001
 21
1.0
 31
0.0
 73
     1
 44
1.0
  0
POINT
  5
39F
330
2F8
100
AcDbEntity
  8
Defpoints
 62
     0
100
AcDbPoint
 10
147.8495724324201
 20
210.5128721613435
 30
0.0
  0
POINT
  5
3A0
330
2F8
100
AcDbEntity
  8
Defpoints
 62
     0
100
AcDbPoint
 10
147.8495724324201
 20
189.7727146810258
 30
0.0
  0
POINT
  5
3A1
330
2F8
100
AcDbEntity
  8
Defpoints
 62
     0
100
AcDbPoint
 10
157.6865956389688
 20
189.7727146810258
 30
0.0
  0
ENDBLK
  5
304
330
2F8
100
AcDbEntity
  8
0
100
AcDbBlockEnd
  0
BLOCK
  5
30B
330
305
100
AcDbEntity
  8
0
100
AcDbBlockBegin
  2
*D21
 70
     1
 10
0.0
 20
0.0
 30
0.0
  3
*D21
  1

  0
LINE
  5
3BC
330
305
100
AcDbEntity
  8
标注
370
    -2
100
AcDbLine
 10
137.7390289025965
 20
220.3477388414632
 30
0.0
 11
137.2236444343192
 21
219.9516594935309
 31
0.0
  0
MTEXT
  5
3BD
330
305
100
AcDbEntity
  8
标注
100
AcDbMText
 10
138.4988906186465
 20
220.9317019826455
 30
0.0
 40
0.65
 41
0.0
 71
     5
 72
     1
  1
\A1;R2"
 11
0.7928991819651361
 21
0.6093528429727874
 31
0.0
 73
     1
 44
1.0
  0
SOLID
  5
3BE
330
305
100
AcDbEntity
  8
标注
100
AcDbTrace
 10
137.1576312096638
 20
220.0375569049104
 30
0.0
 11
137.2896576589746
 21
219.8657620821513
 31
0.0
 12
136.7082599660419
 22
219.5555801455986
 32
0.0
 13
136.7082599660419
 23
219.5555801455986
 33
0.0
  0
POINT
  5
3BF
330
305
100
AcDbEntity
  8
Defpoints
 62
     0
100
AcDbPoint
 10
136.7082599660419
 20
219.5555801455986
 30
0.0
  0
POINT
  5
3C0
330
305
100
AcDbEntity
  8
Defpoints
 62
     0
100
AcDbPoint
 10
138.2940583299721
 20
220.7742858315441
 30
0.0
  0
ENDBLK
  5
30C
330
305
100
AcDbEntity
  8
0
100
AcDbBlockEnd
  0
BLOCK
  5
313
330
30D
100
AcDbEntity
  8
0
100
AcDbBlockBegin
  2
*D22
 70
     1
 10
0.0
 20
0.0
 30
0.0
  3
*D22
  1

  0
LINE
  5
3C1
330
30D
100
AcDbEntity
  8
标注
370
    -2
100
AcDbLine
 10
123.4795372224193
 20
221.8211035032077
 30
0.0
 11
122.9525362879172
 21
221.4406169528095
 31
0.0
  0
MTEXT
  5
3C2
330
30D
100
AcDbEntity
  8
标注
100
AcDbMText
 10
124.256525779698
 20
222.3820772634102
 30
0.0
 40
0.65
 41
0.0
 71
     5
 72
     1
  1
\A1;R2"
 11
0.810770668464719
 21
0.5853639236895904
 31
0.0
 73
     1
 44
1.0
  0
SOLID
  5
3C3
330
30D
100
AcDbEntity
  8
标注
100
AcDbTrace
 10
122.8891218628509
 20
221.5284504418931
 30
0.0
 11
123.0159507129836
 21
221.3527834637258
 31
0.0
 12
122.4255353534152
 22
221.0601304024113
 32
0.0
 13
122.4255353534152
 23
221.0601304024113
 33
0.0
  0
POINT
  5
3C4
330
30D
100
AcDbEntity
  8
Defpoints
 62
     0
100
AcDbPoint
 10
122.4255353534152
 20
221.0601304024113
 30
0.0
  0
POINT
  5
3C5
330
30D
100
AcDbEntity
  8
Defpoints
 62
     0
100
AcDbPoint
 10
124.0470766903445
 20
222.2308582497904
 30
0.0
  0
ENDBLK
  5
314
330
30D
100
AcDbEntity
  8
0
100
AcDbBlockEnd
  0
BLOCK
  5
321
330
315
100
AcDbEntity
  8
0
100
AcDbBlockBegin
  2
*D23
 70
     1
 10
0.0
 20
0.0
 30
0.0
  3
*D23
  1

  0
LINE
  5
316
330
315
100
AcDbEntity
  8
标注
370
    -2
100
AcDbLine
 10
126.5147692828139
 20
190.7727146810401
 30
0.0
 11
117.7265886745974
 21
190.7727146810401
 31
0.0
  0
LINE
  5
317
330
315
100
AcDbEntity
  8
标注
370
    -2
100
AcDbLine
 10
124.4420133772987
 20
189.7727146810424
 30
0.0
 11
117.7265886745974
 21
189.7727146810424
 31
0.0
  0
LINE
  5
318
330
315
100
AcDbEntity
  8
标注
370
    -2
100
AcDbLine
 10
118.0465886745974
 20
191.4227146810402
 30
0.0
 11
118.0465886745974
 21
192.0727146810402
 31
0.0
  0
LINE
  5
319
330
315
100
AcDbEntity
  8
标注
370
    -2
100
AcDbLine
 10
118.0465886745974
 20
189.1227146810424
 30
0.0
 11
118.0465886745974
 21
188.4727146810424
 31
0.0
  0
LINE
  5
31A
330
315
100
AcDbEntity
  8
标注
370
    -2
100
AcDbLine
 10
118.0465886745974
 20
190.7727146810401
 30
0.0
 11
118.0465886745974
 21
189.7727146810424
 31
0.0
  0
SOLID
  5
31B
330
315
100
AcDbEntity
  8
标注
100
AcDbTrace
 10
117.9382553412641
 20
191.4227146810402
 30
0.0
 11
118.1549220079308
 21
191.4227146810402
 31
0.0
 12
118.0465886745974
 22
190.7727146810401
 32
0.0
 13
118.0465886745974
 23
190.7727146810401
 33
0.0
  0
SOLID
  5
31C
330
315
100
AcDbEntity
  8
标注
100
AcDbTrace
 10
117.9382553412641
 20
189.1227146810424
 30
0.0
 11
118.1549220079308
 21
189.1227146810424
 31
0.0
 12
118.0465886745974
 22
189.7727146810424
 32
0.0
 13
118.0465886745974
 23
189.7727146810424
 33
0.0
  0
MTEXT
  5
31D
330
315
100
AcDbEntity
  8
标注
100
AcDbMText
 10
118.0465886745974
 20
187.9477146810424
 30
0.0
 40
0.65
 41
0.0
 71
     5
 72
     1
  1
\A1;1"
 11
0.0000000000000001
 21
1.0
 31
0.0
 73
     1
 44
1.0
  0
POINT
  5
31E
330
315
100
AcDbEntity
  8
Defpoints
 62
     0
100
AcDbPoint
 10
127.3947692828139
 20
190.7727146810401
 30
0.0
  0
POINT
  5
31F
330
315
100
AcDbEntity
  8
Defpoints
 62
     0
100
AcDbPoint
 10
125.3220133772987
 20
189.7727146810424
 30
0.0
  0
POINT
  5
320
330
315
100
AcDbEntity
  8
Defpoints
 62
     0
100
AcDbPoint
 10
118.0465886745974
 20
189.7727146810424
 30
0.0
  0
ENDBLK
  5
322
330
315
100
AcDbEntity
  8
0
100
AcDbBlockEnd
  0
BLOCK
  5
33A
330
32E
100
AcDbEntity
  8
0
100
AcDbBlockBegin
  2
*D24
 70
     1
 10
0.0
 20
0.0
 30
0.0
  3
*D24
  1

  0
LINE
  5
32F
330
32E
100
AcDbEntity
  8
标注
370
    -2
100
AcDbLine
 10
134.77083227494
 20
199.9204312164742
 30
0.0
 11
134.77083227494
 21
199.5827934211861
 31
0.0
  0
LINE
  5
330
330
32E
100
AcDbEntity
  8
标注
370
    -2
100
AcDbLine
 10
136.038548810373
 20
199.9204312164742
 30
0.0
 11
136.038548810373
 21
199.5827934211861
 31
0.0
  0
LINE
  5
331
330
32E
100
AcDbEntity
  8
标注
370
    -2
100
AcDbLine
 10
134.12083227494
 20
199.2627934211861
 30
0.0
 11
133.47083227494
 21
199.2627934211861
 31
0.0
  0
LINE
  5
332
330
32E
100
AcDbEntity
  8
标注
370
    -2
100
AcDbLine
 10
136.6885488103731
 20
199.2627934211861
 30
0.0
 11
137.3385488103731
 21
199.2627934211861
 31
0.0
  0
LINE
  5
333
330
32E
100
AcDbEntity
  8
标注
370
    -2
100
AcDbLine
 10
134.77083227494
 20
199.2627934211861
 30
0.0
 11
136.038548810373
 21
199.2627934211861
 31
0.0
  0
SOLID
  5
334
330
32E
100
AcDbEntity
  8
标注
100
AcDbTrace
 10
134.12083227494
 20
199.3711267545195
 30
0.0
 11
134.12083227494
 21
199.1544600878528
 31
0.0
 12
134.77083227494
 22
199.2627934211861
 32
0.0
 13
134.77083227494
 23
199.2627934211861
 33
0.0
  0
SOLID
  5
335
330
32E
100
AcDbEntity
  8
标注
100
AcDbTrace
 10
136.6885488103731
 20
199.3711267545195
 30
0.0
 11
136.6885488103731
 21
199.1544600878528
 31
0.0
 12
136.038548810373
 22
199.2627934211861
 32
0.0
 13
136.038548810373
 23
199.2627934211861
 33
0.0
  0
MTEXT
  5
336
330
32E
100
AcDbEntity
  8
标注
100
AcDbMText
 10
139.0552154770397
 20
199.2627934211861
 30
0.0
 40
0.65
 41
0.0
 71
     5
 72
     1
  1
\A1;1 1/4"
 73
     1
 44
1.0
  0
POINT
  5
337
330
32E
100
AcDbEntity
  8
Defpoints
 62
     0
100
AcDbPoint
 10
134.77083227494
 20
199.0404312164742
 30
0.0
  0
POINT
  5
338
330
32E
100
AcDbEntity
  8
Defpoints
 62
     0
100
AcDbPoint
 10
136.038548810373
 20
199.0404312164742
 30
0.0
  0
POINT
  5
339
330
32E
100
AcDbEntity
  8
Defpoints
 62
     0
100
AcDbPoint
 10
136.038548810373
 20
199.2627934211861
 30
0.0
  0
ENDBLK
  5
33B
330
32E
100
AcDbEntity
  8
0
100
AcDbBlockEnd
  0
BLOCK
  5
34D
330
347
100
AcDbEntity
  8
0
100
AcDbBlockBegin
  2
*D25
 70
     1
 10
0.0
 20
0.0
 30
0.0
  3
*D25
  1

  0
LINE
  5
3C6
330
347
100
AcDbEntity
  8
标注
370
    -2
100
AcDbLine
 10
123.8238032388251
 20
193.0095116021601
 30
0.0
 11
123.3254553274277
 21
192.5921995376257
 31
0.0
  0
MTEXT
  5
3C7
330
347
100
AcDbEntity
  8
标注
100
AcDbMText
 10
125.4721847919087
 20
194.3898515079274
 30
0.0
 40
0.65
 41
0.0
 71
     5
 72
     1
  1
\A1;R3 1/2"
 11
0.7666890944574902
 21
0.6420185608220016
 31
0.0
 73
     1
 44
1.0
  0
SOLID
  5
3C8
330
347
100
AcDbEntity
  8
标注
100
AcDbTrace
 10
123.2559033166719
 20
192.6752575228586
 30
0.0
 11
123.3950073381834
 21
192.5091415523928
 31
0.0
 12
122.8271074160303
 22
192.1748874730915
 32
0.0
 13
122.8271074160303
 23
192.1748874730915
 33
0.0
  0
POINT
  5
3C9
330
347
100
AcDbEntity
  8
Defpoints
 62
     0
100
AcDbPoint
 10
122.8271074160303
 20
192.1748874730915
 30
0.0
  0
POINT
  5
3CA
330
347
100
AcDbEntity
  8
Defpoints
 62
     0
100
AcDbPoint
 10
125.5437223176513
 20
194.4497563893898
 30
0.0
  0
ENDBLK
  5
34E
330
347
100
AcDbEntity
  8
0
100
AcDbBlockEnd
  0
BLOCK
  5
355
330
34F
100
AcDbEntity
  8
0
100
AcDbBlockBegin
  2
*D26
 70
     1
 10
0.0
 20
0.0
 30
0.0
  3
*D26
  1

  0
LINE
  5
3CB
330
34F
100
AcDbEntity
  8
标注
370
    -2
100
AcDbLine
 10
138.1649362874002
 20
193.1615283372769
 30
0.0
 11
137.6671049754661
 21
192.7436001318898
 31
0.0
  0
MTEXT
  5
3CC
330
34F
100
AcDbEntity
  8
标注
100
AcDbMText
 10
139.894580973735
 20
194.6135609483011
 30
0.0
 40
0.65
 41
0.0
 71
     5
 72
     1
  1
\A1;R3 7/8"
 11
0.7658943260523344
 21
0.6429664698262584
 31
0.0
 73
     1
 44
1.0
  0
SOLID
  5
3CD
330
34F
100
AcDbEntity
  8
标注
100
AcDbTrace
 10
137.5974502745683
 20
192.8265720172121
 30
0.0
 11
137.736759676364
 21
192.6606282465675
 31
0.0
 12
137.1692736635321
 22
192.3256719265027
 32
0.0
 13
137.1692736635321
 23
192.3256719265027
 33
0.0
  0
POINT
  5
3CE
330
34F
100
AcDbEntity
  8
Defpoints
 62
     0
100
AcDbPoint
 10
137.1692736635321
 20
192.3256719265027
 30
0.0
  0
POINT
  5
3CF
330
34F
100
AcDbEntity
  8
Defpoints
 62
     0
100
AcDbPoint
 10
140.1846056558642
 20
194.8570359809368
 30
0.0
  0
ENDBLK
  5
356
330
34F
100
AcDbEntity
  8
0
100
AcDbBlockEnd
  0
BLOCK
  5
362
330
357
100
AcDbEntity
  8
0
100
AcDbBlockBegin
  2
*D27
 70
     1
 10
0.0
 20
0.0
 30
0.0
  3
*D27
  1

  0
LINE
  5
358
330
357
100
AcDbEntity
  8
标注
370
    -2
100
AcDbLine
 10
152.7865803064359
 20
193.8297225550414
 30
0.0
 11
152.7865803064359
 21
184.8511816833886
 31
0.0
  0
LINE
  5
359
330
357
100
AcDbEntity
  8
标注
370
    -2
100
AcDbLine
 10
120.778706290688
 20
193.4360217676566
 30
0.0
 11
120.778706290688
 21
184.8511816833886
 31
0.0
  0
LINE
  5
35A
330
357
100
AcDbEntity
  8
标注
370
    -2
100
AcDbLine
 10
152.1365803064359
 20
185.1711816833886
 30
0.0
 11
137.7409766318952
 21
185.1711816833886
 31
0.0
  0
LINE
  5
35B
330
357
100
AcDbEntity
  8
标注
370
    -2
100
AcDbLine
 10
121.428706290688
 20
185.1711816833886
 30
0.0
 11
135.8243099652285
 21
185.1711816833886
 31
0.0
  0
SOLID
  5
35C
330
357
100
AcDbEntity
  8
标注
100
AcDbTrace
 10
152.1365803064359
 20
185.2795150167219
 30
0.0
 11
152.1365803064359
 21
185.0628483500553
 31
0.0
 12
152.7865803064359
 22
185.1711816833886
 32
0.0
 13
152.7865803064359
 23
185.1711816833886
 33
0.0
  0
SOLID
  5
35D
330
357
100
AcDbEntity
  8
标注
100
AcDbTrace
 10
121.428706290688
 20
185.2795150167219
 30
0.0
 11
121.428706290688
 21
185.0628483500553
 31
0.0
 12
120.778706290688
 22
185.1711816833886
 32
0.0
 13
120.778706290688
 23
185.1711816833886
 33
0.0
  0
MTEXT
  5
35E
330
357
100
AcDbEntity
  8
标注
100
AcDbMText
 10
136.7826432985619
 20
185.1711816833886
 30
0.0
 40
0.65
 41
0.0
 71
     5
 72
     1
  1
\A1;32"
 73
     1
 44
1.0
  0
POINT
  5
35F
330
357
100
AcDbEntity
  8
Defpoints
 62
     0
100
AcDbPoint
 10
152.7865803064359
 20
194.7097225550414
 30
0.0
  0
POINT
  5
360
330
357
100
AcDbEntity
  8
Defpoints
 62
     0
100
AcDbPoint
 10
120.778706290688
 20
194.3160217676565
 30
0.0
  0
POINT
  5
361
330
357
100
AcDbEntity
  8
Defpoints
 62
     0
100
AcDbPoint
 10
120.778706290688
 20
185.1711816833886
 30
0.0
  0
ENDBLK
  5
363
330
357
100
AcDbEntity
  8
0
100
AcDbBlockEnd
  0
BLOCK
  5
36F
330
364
100
AcDbEntity
  8
0
100
AcDbBlockBegin
  2
*D28
 70
     1
 10
0.0
 20
0.0
 30
0.0
  3
*D28
  1

  0
LINE
  5
365
330
364
100
AcDbEntity
  8
标注
370
    -2
100
AcDbLine
 10
134.7708322749399
 20
198.1604312164743
 30
0.0
 11
134.7708322749399
 21
187.0945799508248
 31
0.0
  0
LINE
  5
366
330
364
100
AcDbEntity
  8
标注
370
    -2
100
AcDbLine
 10
121.778706290688
 20
198.1604312164732
 30
0.0
 11
121.778706290688
 21
187.0945799508248
 31
0.0
  0
LINE
  5
367
330
364
100
AcDbEntity
  8
标注
370
    -2
100
AcDbLine
 10
134.1208322749399
 20
187.4145799508248
 30
0.0
 11
129.1247692828139
 21
187.4145799508248
 31
0.0
  0
LINE
  5
368
330
364
100
AcDbEntity
  8
标注
370
    -2
100
AcDbLine
 10
122.428706290688
 20
187.4145799508248
 30
0.0
 11
127.4247692828139
 21
187.4145799508248
 31
0.0
  0
SOLID
  5
369
330
364
100
AcDbEntity
  8
标注
100
AcDbTrace
 10
134.1208322749399
 20
187.5229132841582
 30
0.0
 11
134.1208322749399
 21
187.3062466174915
 31
0.0
 12
134.7708322749399
 22
187.4145799508248
 32
0.0
 13
134.7708322749399
 23
187.4145799508248
 33
0.0
  0
SOLID
  5
36A
330
364
100
AcDbEntity
  8
标注
100
AcDbTrace
 10
122.428706290688
 20
187.5229132841582
 30
0.0
 11
122.428706290688
 21
187.3062466174915
 31
0.0
 12
121.778706290688
 22
187.4145799508248
 32
0.0
 13
121.778706290688
 23
187.4145799508248
 33
0.0
  0
MTEXT
  5
36B
330
364
100
AcDbEntity
  8
标注
100
AcDbMText
 10
128.2747692828139
 20
187.4145799508248
 30
0.0
 40
0.65
 41
0.0
 71
     5
 72
     1
  1
\A1;13"
 73
     1
 44
1.0
  0
POINT
  5
36C
330
364
100
AcDbEntity
  8
Defpoints
 62
     0
100
AcDbPoint
 10
134.7708322749399
 20
199.0404312164742
 30
0.0
  0
POINT
  5
36D
330
364
100
AcDbEntity
  8
Defpoints
 62
     0
100
AcDbPoint
 10
121.778706290688
 20
199.0404312164732
 30
0.0
  0
POINT
  5
36E
330
364
100
AcDbEntity
  8
Defpoints
 62
     0
100
AcDbPoint
 10
121.778706290688
 20
187.4145799508248
 30
0.0
  0
ENDBLK
  5
370
330
364
100
AcDbEntity
  8
0
100
AcDbBlockEnd
  0
BLOCK
  5
37C
330
371
100
AcDbEntity
  8
0
100
AcDbBlockBegin
  2
*D29
 70
     1
 10
0.0
 20
0.0
 30
0.0
  3
*D29
  1

  0
LINE
  5
3D0
330
371
100
AcDbEntity
  8
标注
370
    -2
100
AcDbLine
 10
151.786580306436
 20
199.2627934211861
 30
0.0
 11
151.786580306436
 21
187.0985893225397
 31
0.0
  0
LINE
  5
3D1
330
371
100
AcDbEntity
  8
标注
370
    -2
100
AcDbLine
 10
136.038548810373
 20
199.2627934211861
 30
0.0
 11
136.038548810373
 21
187.0985893225397
 31
0.0
  0
LINE
  5
3D2
330
371
100
AcDbEntity
  8
标注
370
    -2
100
AcDbLine
 10
151.1365803064359
 20
187.4185893225397
 30
0.0
 11
146.0625645584045
 21
187.4185893225397
 31
0.0
  0
LINE
  5
3D3
330
371
100
AcDbEntity
  8
标注
370
    -2
100
AcDbLine
 10
136.688548810373
 20
187.4185893225397
 30
0.0
 11
141.7625645584045
 21
187.4185893225397
 31
0.0
  0
SOLID
  5
3D4
330
371
100
AcDbEntity
  8
标注
100
AcDbTrace
 10
151.1365803064359
 20
187.5269226558731
 30
0.0
 11
151.1365803064359
 21
187.3102559892064
 31
0.0
 12
151.786580306436
 22
187.4185893225397
 32
0.0
 13
151.786580306436
 23
187.4185893225397
 33
0.0
  0
SOLID
  5
3D5
330
371
100
AcDbEntity
  8
标注
100
AcDbTrace
 10
136.688548810373
 20
187.5269226558731
 30
0.0
 11
136.688548810373
 21
187.3102559892064
 31
0.0
 12
136.038548810373
 22
187.4185893225397
 32
0.0
 13
136.038548810373
 23
187.4185893225397
 33
0.0
  0
MTEXT
  5
3D6
330
371
100
AcDbEntity
  8
标注
100
AcDbMText
 10
143.9125645584045
 20
187.4185893225397
 30
0.0
 40
0.65
 41
0.0
 71
     5
 72
     1
  1
\A1;15 3/4"
 73
     1
 44
1.0
  0
POINT
  5
3D7
330
371
100
AcDbEntity
  8
Defpoints
 62
     0
100
AcDbPoint
 10
151.786580306436
 20
200.1427934211862
 30
0.0
  0
POINT
  5
3D8
330
371
100
AcDbEntity
  8
Defpoints
 62
     0
100
AcDbPoint
 10
136.038548810373
 20
200.1427934211862
 30
0.0
  0
POINT
  5
3D9
330
371
100
AcDbEntity
  8
Defpoints
 62
     0
100
AcDbPoint
 10
136.038548810373
 20
187.4185893225397
 30
0.0
  0
ENDBLK
  5
37D
330
371
100
AcDbEntity
  8
0
100
AcDbBlockEnd
  0
BLOCK
  5
389
330
37E
100
AcDbEntity
  8
0
100
AcDbBlockBegin
  2
*D30
 70
     1
 10
0.0
 20
0.0
 30
0.0
  3
*D30
  1

  0
LINE
  5
37F
330
37E
100
AcDbEntity
  8
标注
370
    -2
100
AcDbLine
 10
124.4420133773021
 20
208.3081477519064
 30
0.0
 11
115.385427759201
 21
208.3081477519064
 31
0.0
  0
LINE
  5
380
330
37E
100
AcDbEntity
  8
标注
370
    -2
100
AcDbLine
 10
124.4420133773021
 20
189.7727146810424
 30
0.0
 11
115.385427759201
 21
189.7727146810424
 31
0.0
  0
LINE
  5
381
330
37E
100
AcDbEntity
  8
标注
370
    -2
100
AcDbLine
 10
115.705427759201
 20
207.6581477519064
 30
0.0
 11
115.705427759201
 21
201.082097883141
 31
0.0
  0
LINE
  5
382
330
37E
100
AcDbEntity
  8
标注
370
    -2
100
AcDbLine
 10
115.705427759201
 20
190.4227146810424
 30
0.0
 11
115.705427759201
 21
196.9987645498077
 31
0.0
  0
SOLID
  5
383
330
37E
100
AcDbEntity
  8
标注
100
AcDbTrace
 10
115.5970944258677
 20
207.6581477519064
 30
0.0
 11
115.8137610925344
 21
207.6581477519064
 31
0.0
 12
115.705427759201
 22
208.3081477519064
 32
0.0
 13
115.705427759201
 23
208.3081477519064
 33
0.0
  0
SOLID
  5
384
330
37E
100
AcDbEntity
  8
标注
100
AcDbTrace
 10
115.5970944258677
 20
190.4227146810424
 30
0.0
 11
115.8137610925344
 21
190.4227146810424
 31
0.0
 12
115.705427759201
 22
189.7727146810424
 32
0.0
 13
115.705427759201
 23
189.7727146810424
 33
0.0
  0
MTEXT
  5
385
330
37E
100
AcDbEntity
  8
标注
100
AcDbMText
 10
115.705427759201
 20
199.0404312164744
 30
0.0
 40
0.65
 41
0.0
 71
     5
 72
     1
  1
\A1;18 1/2"
 11
0.0000000000000001
 21
1.0
 31
0.0
 73
     1
 44
1.0
  0
POINT
  5
386
330
37E
100
AcDbEntity
  8
Defpoints
 62
     0
100
AcDbPoint
 10
125.3220133773021
 20
208.3081477519064
 30
0.0
  0
POINT
  5
387
330
37E
100
AcDbEntity
  8
Defpoints
 62
     0
100
AcDbPoint
 10
125.3220133773021
 20
189.7727146810424
 30
0.0
  0
POINT
  5
388
330
37E
100
AcDbEntity
  8
Defpoints
 62
     0
100
AcDbPoint
 10
115.705427759201
 20
189.7727146810424
 30
0.0
  0
ENDBLK
  5
38A
330
37E
100
AcDbEntity
  8
0
100
AcDbBlockEnd
  0
BLOCK
  5
396
330
38B
100
AcDbEntity
  8
0
100
AcDbBlockBegin
  2
*D31
 70
     1
 10
0.0
 20
0.0
 30
0.0
  3
*D31
  1

  0
LINE
  5
38C
330
38B
100
AcDbEntity
  8
标注
370
    -2
100
AcDbLine
 10
127.3947692828139
 20
207.3081477519063
 30
0.0
 11
117.7265886745974
 21
207.3081477519063
 31
0.0
  0
LINE
  5
38D
330
38B
100
AcDbEntity
  8
标注
370
    -2
100
AcDbLine
 10
127.394769282814
 20
190.7727146810401
 30
0.0
 11
117.7265886745974
 21
190.7727146810401
 31
0.0
  0
LINE
  5
38E
330
38B
100
AcDbEntity
  8
标注
370
    -2
100
AcDbLine
 10
118.0465886745974
 20
206.6581477519063
 30
0.0
 11
118.0465886745974
 21
201.0820978831398
 31
0.0
  0
LINE
  5
38F
330
38B
100
AcDbEntity
  8
标注
370
    -2
100
AcDbLine
 10
118.0465886745974
 20
191.4227146810402
 30
0.0
 11
118.0465886745974
 21
196.9987645498065
 31
0.0
  0
SOLID
  5
390
330
38B
100
AcDbEntity
  8
标注
100
AcDbTrace
 10
117.938255341264
 20
206.6581477519063
 30
0.0
 11
118.1549220079307
 21
206.6581477519063
 31
0.0
 12
118.0465886745974
 22
207.3081477519063
 32
0.0
 13
118.0465886745974
 23
207.3081477519063
 33
0.0
  0
SOLID
  5
391
330
38B
100
AcDbEntity
  8
标注
100
AcDbTrace
 10
117.938255341264
 20
191.4227146810402
 30
0.0
 11
118.1549220079307
 21
191.4227146810402
 31
0.0
 12
118.0465886745974
 22
190.7727146810401
 32
0.0
 13
118.0465886745974
 23
190.7727146810401
 33
0.0
  0
MTEXT
  5
392
330
38B
100
AcDbEntity
  8
标注
100
AcDbMText
 10
118.0465886745974
 20
199.0404312164732
 30
0.0
 40
0.65
 41
0.0
 71
     5
 72
     1
  1
\A1;16 1/2"
 11
0.0000000000000001
 21
1.0
 31
0.0
 73
     1
 44
1.0
  0
POINT
  5
393
330
38B
100
AcDbEntity
  8
Defpoints
 62
     0
100
AcDbPoint
 10
128.2747692828139
 20
207.3081477519063
 30
0.0
  0
POINT
  5
394
330
38B
100
AcDbEntity
  8
Defpoints
 62
     0
100
AcDbPoint
 10
128.2747692828139
 20
190.7727146810401
 30
0.0
  0
POINT
  5
395
330
38B
100
AcDbEntity
  8
Defpoints
 62
     0
100
AcDbPoint
 10
118.0465886745974
 20
190.7727146810401
 30
0.0
  0
ENDBLK
  5
397
330
38B
100
AcDbEntity
  8
0
100
AcDbBlockEnd
  0
BLOCK
  5
3AD
330
3A2
100
AcDbEntity
  8
0
100
AcDbBlockBegin
  2
*D32
 70
     1
 10
0.0
 20
0.0
 30
0.0
  3
*D32
  1

  0
LINE
  5
3A3
330
3A2
100
AcDbEntity
  8
标注
370
    -2
100
AcDbLine
 10
144.7925645583578
 20
209.5128721613436
 30
0.0
 11
155.5686348027764
 21
209.5128721613436
 31
0.0
  0
LINE
  5
3A4
330
3A2
100
AcDbEntity
  8
标注
370
    -2
100
AcDbLine
 10
144.7925645583307
 20
190.7727146810286
 30
0.0
 11
155.5686348027764
 21
190.7727146810286
 31
0.0
  0
LINE
  5
3A5
330
3A2
100
AcDbEntity
  8
标注
370
    -2
100
AcDbLine
 10
155.2486348027764
 20
208.8628721613436
 30
0.0
 11
155.2486348027764
 21
202.2927934211862
 31
0.0
  0
LINE
  5
3A6
330
3A2
100
AcDbEntity
  8
标注
370
    -2
100
AcDbLine
 10
155.2486348027764
 20
191.4227146810287
 30
0.0
 11
155.2486348027764
 21
197.9927934211861
 31
0.0
  0
SOLID
  5
3A7
330
3A2
100
AcDbEntity
  8
标注
100
AcDbTrace
 10
155.1403014694431
 20
208.8628721613436
 30
0.0
 11
155.3569681361097
 21
208.8628721613436
 31
0.0
 12
155.2486348027764
 22
209.5128721613436
 32
0.0
 13
155.2486348027764
 23
209.5128721613436
 33
0.0
  0
SOLID
  5
3A8
330
3A2
100
AcDbEntity
  8
标注
100
AcDbTrace
 10
155.1403014694431
 20
191.4227146810287
 30
0.0
 11
155.3569681361097
 21
191.4227146810287
 31
0.0
 12
155.2486348027764
 22
190.7727146810286
 32
0.0
 13
155.2486348027764
 23
190.7727146810286
 33
0.0
  0
MTEXT
  5
3A9
330
3A2
100
AcDbEntity
  8
标注
100
AcDbMText
 10
155.2486348027764
 20
200.1427934211862
 30
0.0
 40
0.65
 41
0.0
 71
     5
 72
     1
  1
\A1;18 3/4"
 11
0.0000000000000001
 21
1.0
 31
0.0
 73
     1
 44
1.0
  0
POINT
  5
3AA
330
3A2
100
AcDbEntity
  8
Defpoints
 62
     0
100
AcDbPoint
 10
143.9125645583578
 20
209.5128721613436
 30
0.0
  0
POINT
  5
3AB
330
3A2
100
AcDbEntity
  8
Defpoints
 62
     0
100
AcDbPoint
 10
143.9125645583307
 20
190.7727146810286
 30
0.0
  0
POINT
  5
3AC
330
3A2
100
AcDbEntity
  8
Defpoints
 62
     0
100
AcDbPoint
 10
155.2486348027764
 20
190.7727146810286
 30
0.0
  0
ENDBLK
  5
3AE
330
3A2
100
AcDbEntity
  8
0
100
AcDbBlockEnd
  0
BLOCK
  5
3BA
330
3AF
100
AcDbEntity
  8
0
100
AcDbBlockBegin
  2
*D33
 70
     1
 10
0.0
 20
0.0
 30
0.0
  3
*D33
  1

  0
LINE
  5
3B0
330
3AF
100
AcDbEntity
  8
标注
370
    -2
100
AcDbLine
 10
119.898706290688
 20
227.5530373669663
 30
0.0
 11
117.7668041979879
 21
227.5530373669663
 31
0.0
  0
LINE
  5
3B1
330
3AF
100
AcDbEntity
  8
标注
370
    -2
100
AcDbLine
 10
125.4461691089878
 20
220.0845334299562
 30
0.0
 11
117.7668041979879
 21
220.0845334299562
 31
0.0
  0
LINE
  5
3B2
330
3AF
100
AcDbEntity
  8
标注
370
    -2
100
AcDbLine
 10
118.0868041979879
 20
226.9030373669663
 30
0.0
 11
118.0868041979879
 21
225.6437853984613
 31
0.0
  0
LINE
  5
3B3
330
3AF
100
AcDbEntity
  8
标注
370
    -2
100
AcDbLine
 10
118.0868041979879
 20
220.7345334299562
 30
0.0
 11
118.0868041979879
 21
221.9937853984613
 31
0.0
  0
SOLID
  5
3B4
330
3AF
100
AcDbEntity
  8
标注
100
AcDbTrace
 10
117.9784708646546
 20
226.9030373669663
 30
0.0
 11
118.1951375313213
 21
226.9030373669663
 31
0.0
 12
118.0868041979879
 22
227.5530373669663
 32
0.0
 13
118.0868041979879
 23
227.5530373669663
 33
0.0
  0
SOLID
  5
3B5
330
3AF
100
AcDbEntity
  8
标注
100
AcDbTrace
 10
117.9784708646546
 20
220.7345334299562
 30
0.0
 11
118.1951375313212
 21
220.7345334299562
 31
0.0
 12
118.0868041979879
 22
220.0845334299562
 32
0.0
 13
118.0868041979879
 23
220.0845334299562
 33
0.0
  0
MTEXT
  5
3B6
330
3AF
100
AcDbEntity
  8
标注
100
AcDbMText
 10
118.0868041979879
 20
223.8187853984613
 30
0.0
 40
0.65
 41
0.0
 71
     5
 72
     1
  1
\A1;7 1/2"
 11
0.0000000000000001
 21
1.0
 31
0.0
 73
     1
 44
1.0
  0
POINT
  5
3B7
330
3AF
100
AcDbEntity
  8
Defpoints
 62
     0
100
AcDbPoint
 10
120.778706290688
 20
227.5530373669663
 30
0.0
  0
POINT
  5
3B8
330
3AF
100
AcDbEntity
  8
Defpoints
 62
     0
100
AcDbPoint
 10
126.3261691089878
 20
220.0845334299562
 30
0.0
  0
POINT
  5
3B9
330
3AF
100
AcDbEntity
  8
Defpoints
 62
     0
100
AcDbPoint
 10
118.0868041979879
 20
220.0845334299562
 30
0.0
  0
ENDBLK
  5
3BB
330
3AF
100
AcDbEntity
  8
0
100
AcDbBlockEnd
  0
BLOCK
  5
3DD
330
3DC
100
AcDbEntity
  8
0
100
AcDbBlockBegin
  2
*D34
 70
     1
 10
0.0
 20
0.0
 30
0.0
  3
*D34
  1

  0
LINE
  5
3DE
330
3DC
100
AcDbEntity
  8
标注
 62
     3
370
    -2
100
AcDbLine
 10
-1381.066254804612
 20
-467.8979183969195
 30
0.0
 11
-1333.689175764238
 21
-467.8979183969195
 31
0.0
  0
LINE
  5
3DF
330
3DC
100
AcDbEntity
  8
标注
 62
     3
370
    -2
100
AcDbLine
 10
-1491.44174555377
 20
-658.6297216881894
 30
0.0
 11
-1333.689175764238
 21
-658.6297216881894
 31
0.0
  0
LINE
  5
3E0
330
3DC
100
AcDbEntity
  8
标注
 62
     3
370
    -2
100
AcDbLine
 10
-1341.689175764238
 20
-445.8979183969195
 30
0.0
 11
-1341.689175764238
 21
-423.8979183969195
 31
0.0
  0
LINE
  5
3E1
330
3DC
100
AcDbEntity
  8
标注
 62
     3
370
    -2
100
AcDbLine
 10
-1341.689175764238
 20
-680.6297216881894
 30
0.0
 11
-1341.689175764238
 21
-702.6297216881894
 31
0.0
  0
LINE
  5
3E2
330
3DC
100
AcDbEntity
  8
标注
 62
     3
370
    -2
100
AcDbLine
 10
-1341.689175764238
 20
-467.8979183969195
 30
0.0
 11
-1341.689175764238
 21
-487.5543751975653
 31
0.0
  0
LINE
  5
3E3
330
3DC
100
AcDbEntity
  8
标注
 62
     3
370
    -2
100
AcDbLine
 10
-1341.689175764238
 20
-658.6297216881894
 30
0.0
 11
-1341.689175764238
 21
-638.9732648875437
 31
0.0
  0
SOLID
  5
3E4
330
3DC
100
AcDbEntity
  8
标注
 62
     3
100
AcDbTrace
 10
-1345.355842430905
 20
-445.8979183969195
 30
0.0
 11
-1338.022509097571
 21
-445.8979183969195
 31
0.0
 12
-1341.689175764238
 22
-467.8979183969195
 32
0.0
 13
-1341.689175764238
 23
-467.8979183969195
 33
0.0
  0
SOLID
  5
3E5
330
3DC
100
AcDbEntity
  8
标注
 62
     3
100
AcDbTrace
 10
-1345.355842430905
 20
-680.6297216881894
 30
0.0
 11
-1338.022509097572
 21
-680.6297216881894
 31
0.0
 12
-1341.689175764238
 22
-658.6297216881894
 32
0.0
 13
-1341.689175764238
 23
-658.6297216881894
 33
0.0
  0
MTEXT
  5
3E6
330
3DC
100
AcDbEntity
  8
标注
 62
     3
100
AcDbMText
 10
-1341.689175764238
 20
-563.2638200425547
 30
0.0
 40
20.0
 41
0.0
 71
     5
 72
     1
  1
\A1;191 [7 1/2"]
 11
0.0000000000000001
 21
1.0
 31
0.0
 73
     1
 44
1.0
  0
POINT
  5
3E7
330
3DC
100
AcDbEntity
  8
Defpoints
 62
     0
100
AcDbPoint
 10
-1406.066254804612
 20
-467.8979183969195
 30
0.0
  0
POINT
  5
3E8
330
3DC
100
AcDbEntity
  8
Defpoints
 62
     0
100
AcDbPoint
 10
-1516.44174555377
 20
-658.6297216881894
 30
0.0
  0
POINT
  5
3E9
330
3DC
100
AcDbEntity
  8
Defpoints
 62
     0
100
AcDbPoint
 10
-1341.689175764238
 20
-658.6297216881894
 30
0.0
  0
ENDBLK
  5
3EA
330
3DC
100
AcDbEntity
  8
0
100
AcDbBlockEnd
  0
BLOCK
  5
3EC
330
3EB
100
AcDbEntity
  8
0
100
AcDbBlockBegin
  2
*D35
 70
     1
 10
0.0
 20
0.0
 30
0.0
  3
*D35
  1

  0
LINE
  5
3ED
330
3EB
100
AcDbEntity
  8
标注
 62
     3
370
    -2
100
AcDbLine
 10
-2231.066254804613
 20
-467.8979183969131
 30
0.0
 11
-2287.432439666365
 21
-467.8979183969131
 31
0.0
  0
LINE
  5
3EE
330
3EB
100
AcDbEntity
  8
标注
 62
     3
370
    -2
100
AcDbLine
 10
-2025.441745552654
 20
-721.9297216882223
 30
0.0
 11
-2287.432439666365
 21
-721.9297216882223
 31
0.0
  0
LINE
  5
3EF
330
3EB
100
AcDbEntity
  8
标注
 62
     3
370
    -2
100
AcDbLine
 10
-2279.432439666365
 20
-489.8979183969131
 30
0.0
 11
-2279.432439666365
 21
-532.9678935825821
 31
0.0
  0
LINE
  5
3F0
330
3EB
100
AcDbEntity
  8
标注
 62
     3
370
    -2
100
AcDbLine
 10
-2279.432439666365
 20
-699.9297216882223
 30
0.0
 11
-2279.432439666365
 21
-656.8597465025533
 31
0.0
  0
SOLID
  5
3F1
330
3EB
100
AcDbEntity
  8
标注
 62
     3
100
AcDbTrace
 10
-2283.099106333031
 20
-489.8979183969131
 30
0.0
 11
-2275.765772999698
 21
-489.8979183969131
 31
0.0
 12
-2279.432439666365
 22
-467.8979183969131
 32
0.0
 13
-2279.432439666365
 23
-467.8979183969131
 33
0.0
  0
SOLID
  5
3F2
330
3EB
100
AcDbEntity
  8
标注
 62
     3
100
AcDbTrace
 10
-2283.099106333031
 20
-699.9297216882223
 30
0.0
 11
-2275.765772999698
 21
-699.9297216882223
 31
0.0
 12
-2279.432439666365
 22
-721.9297216882223
 32
0.0
 13
-2279.432439666365
 23
-721.9297216882223
 33
0.0
  0
MTEXT
  5
3F3
330
3EB
100
AcDbEntity
  8
标注
 62
     3
100
AcDbMText
 10
-2279.432439666365
 20
-594.913820042568
 30
0.0
 40
20.0
 41
0.0
 71
     5
 72
     1
  1
\A1;254 [10"]
 11
0.0000000000000001
 21
1.0
 31
0.0
 73
     1
 44
1.0
  0
POINT
  5
3F4
330
3EB
100
AcDbEntity
  8
Defpoints
 62
     0
100
AcDbPoint
 10
-2206.066254804613
 20
-467.8979183969131
 30
0.0
  0
POINT
  5
3F5
330
3EB
100
AcDbEntity
  8
Defpoints
 62
     0
100
AcDbPoint
 10
-2000.441745552654
 20
-721.9297216882223
 30
0.0
  0
POINT
  5
3F6
330
3EB
100
AcDbEntity
  8
Defpoints
 62
     0
100
AcDbPoint
 10
-2279.432439666365
 20
-721.9297216882223
 30
0.0
  0
ENDBLK
  5
3F7
330
3EB
100
AcDbEntity
  8
0
100
AcDbBlockEnd
  0
BLOCK
  5
3F9
330
3F8
100
AcDbEntity
  8
0
100
AcDbBlockBegin
  2
*D36
 70
     1
 10
0.0
 20
0.0
 30
0.0
  3
*D36
  1

  0
LINE
  5
3FA
330
3F8
100
AcDbEntity
  8
标注
 62
     3
370
    -2
100
AcDbLine
 10
-1538.841254804612
 20
-935.0349354782311
 30
0.0
 11
-1328.570385260659
 21
-935.0349354782311
 31
0.0
  0
LINE
  5
3FB
330
3F8
100
AcDbEntity
  8
标注
 62
     3
370
    -2
100
AcDbLine
 10
-1538.841254804614
 20
-1341.03493547823
 30
0.0
 11
-1328.570385260659
 21
-1341.03493547823
 31
0.0
  0
LINE
  5
3FC
330
3F8
100
AcDbEntity
  8
标注
 62
     3
370
    -2
100
AcDbLine
 10
-1336.570385260658
 20
-957.034935478231
 30
0.0
 11
-1336.570385260658
 21
-1076.002491354222
 31
0.0
  0
LINE
  5
3FD
330
3F8
100
AcDbEntity
  8
标注
 62
     3
370
    -2
100
AcDbLine
 10
-1336.570385260658
 20
-1319.03493547823
 30
0.0
 11
-1336.570385260658
 21
-1200.067379602239
 31
0.0
  0
SOLID
  5
3FE
330
3F8
100
AcDbEntity
  8
标注
 62
     3
100
AcDbTrace
 10
-1340.237051927325
 20
-957.034935478231
 30
0.0
 11
-1332.903718593992
 21
-957.034935478231
 31
0.0
 12
-1336.570385260658
 22
-935.0349354782311
 32
0.0
 13
-1336.570385260658
 23
-935.0349354782311
 33
0.0
  0
SOLID
  5
3FF
330
3F8
100
AcDbEntity
  8
标注
 62
     3
100
AcDbTrace
 10
-1340.237051927325
 20
-1319.03493547823
 30
0.0
 11
-1332.903718593992
 21
-1319.03493547823
 31
0.0
 12
-1336.570385260658
 22
-1341.03493547823
 32
0.0
 13
-1336.570385260658
 23
-1341.03493547823
 33
0.0
  0
MTEXT
  5
400
330
3F8
100
AcDbEntity
  8
标注
 62
     3
100
AcDbMText
 10
-1336.570385260658
 20
-1138.034935478231
 30
0.0
 40
20.0
 41
0.0
 71
     5
 72
     1
  1
\A1;406 [16"]
 11
0.0000000000000001
 21
1.0
 31
0.0
 73
     1
 44
1.0
  0
POINT
  5
401
330
3F8
100
AcDbEntity
  8
Defpoints
 62
     0
100
AcDbPoint
 10
-1563.841254804612
 20
-935.0349354782311
 30
0.0
  0
POINT
  5
402
330
3F8
100
AcDbEntity
  8
Defpoints
 62
     0
100
AcDbPoint
 10
-1563.841254804614
 20
-1341.03493547823
 30
0.0
  0
POINT
  5
403
330
3F8
100
AcDbEntity
  8
Defpoints
 62
     0
100
AcDbPoint
 10
-1336.570385260658
 20
-1341.03493547823
 30
0.0
  0
ENDBLK
  5
404
330
3F8
100
AcDbEntity
  8
0
100
AcDbBlockEnd
  0
BLOCK
  5
406
330
405
100
AcDbEntity
  8
0
100
AcDbBlockBegin
  2
*D37
 70
     1
 10
0.0
 20
0.0
 30
0.0
  3
*D37
  1

  0
LINE
  5
407
330
405
100
AcDbEntity
  8
标注
 62
     3
370
    -2
100
AcDbLine
 10
-1486.466254804612
 20
-909.6349354782303
 30
0.0
 11
-1262.420070667314
 21
-909.6349354782303
 31
0.0
  0
LINE
  5
408
330
405
100
AcDbEntity
  8
标注
 62
     3
370
    -2
100
AcDbLine
 10
-1486.466254804612
 20
-1366.43493547823
 30
0.0
 11
-1262.420070667314
 21
-1366.43493547823
 31
0.0
  0
LINE
  5
409
330
405
100
AcDbEntity
  8
标注
 62
     3
370
    -2
100
AcDbLine
 10
-1270.420070667314
 20
-931.6349354782303
 30
0.0
 11
-1270.420070667314
 21
-1076.002491354222
 31
0.0
  0
LINE
  5
40A
330
405
100
AcDbEntity
  8
标注
 62
     3
370
    -2
100
AcDbLine
 10
-1270.420070667314
 20
-1344.43493547823
 30
0.0
 11
-1270.420070667314
 21
-1200.067379602239
 31
0.0
  0
SOLID
  5
40B
330
405
100
AcDbEntity
  8
标注
 62
     3
100
AcDbTrace
 10
-1274.086737333981
 20
-931.6349354782303
 30
0.0
 11
-1266.753404000648
 21
-931.6349354782303
 31
0.0
 12
-1270.420070667314
 22
-909.6349354782303
 32
0.0
 13
-1270.420070667314
 23
-909.6349354782303
 33
0.0
  0
SOLID
  5
40C
330
405
100
AcDbEntity
  8
标注
 62
     3
100
AcDbTrace
 10
-1274.086737333981
 20
-1344.43493547823
 30
0.0
 11
-1266.753404000648
 21
-1344.43493547823
 31
0.0
 12
-1270.420070667314
 22
-1366.43493547823
 32
0.0
 13
-1270.420070667314
 23
-1366.43493547823
 33
0.0
  0
MTEXT
  5
40D
330
405
100
AcDbEntity
  8
标注
 62
     3
100
AcDbMText
 10
-1270.420070667314
 20
-1138.034935478231
 30
0.0
 40
20.0
 41
0.0
 71
     5
 72
     1
  1
\A1;457 [18"]
 11
0.0000000000000001
 21
1.0
 31
0.0
 73
     1
 44
1.0
  0
POINT
  5
40E
330
405
100
AcDbEntity
  8
Defpoints
 62
     0
100
AcDbPoint
 10
-1511.466254804612
 20
-909.6349354782303
 30
0.0
  0
POINT
  5
40F
330
405
100
AcDbEntity
  8
Defpoints
 62
     0
100
AcDbPoint
 10
-1511.466254804612
 20
-1366.43493547823
 30
0.0
  0
POINT
  5
410
330
405
100
AcDbEntity
  8
Defpoints
 62
     0
100
AcDbPoint
 10
-1270.420070667314
 20
-1366.43493547823
 30
0.0
  0
ENDBLK
  5
411
330
405
100
AcDbEntity
  8
0
100
AcDbBlockEnd
  0
BLOCK
  5
413
330
412
100
AcDbEntity
  8
0
100
AcDbBlockBegin
  2
*D38
 70
     1
 10
0.0
 20
0.0
 30
0.0
  3
*D38
  1

  0
LINE
  5
414
330
412
100
AcDbEntity
  8
标注
 62
     3
370
    -2
100
AcDbLine
 10
-1696.841254804612
 20
-1163.65993547823
 30
0.0
 11
-1696.841254804612
 21
-1429.283679134391
 31
0.0
  0
LINE
  5
415
330
412
100
AcDbEntity
  8
标注
 62
     3
370
    -2
100
AcDbLine
 10
-1430.841254804612
 20
-1163.034935478232
 30
0.0
 11
-1430.841254804612
 21
-1429.283679134391
 31
0.0
  0
LINE
  5
416
330
412
100
AcDbEntity
  8
标注
 62
     3
370
    -2
100
AcDbLine
 10
-1674.841254804612
 20
-1421.283679134391
 30
0.0
 11
-1648.346662158613
 21
-1421.283679134391
 31
0.0
  0
LINE
  5
417
330
412
100
AcDbEntity
  8
标注
 62
     3
370
    -2
100
AcDbLine
 10
-1452.841254804612
 20
-1421.283679134391
 30
0.0
 11
-1479.335847450611
 21
-1421.283679134391
 31
0.0
  0
SOLID
  5
418
330
412
100
AcDbEntity
  8
标注
 62
     3
100
AcDbTrace
 10
-1674.841254804612
 20
-1417.617012467724
 30
0.0
 11
-1674.841254804612
 21
-1424.950345801057
 31
0.0
 12
-1696.841254804612
 22
-1421.283679134391
 32
0.0
 13
-1696.841254804612
 23
-1421.283679134391
 33
0.0
  0
SOLID
  5
419
330
412
100
AcDbEntity
  8
标注
 62
     3
100
AcDbTrace
 10
-1452.841254804612
 20
-1417.617012467724
 30
0.0
 11
-1452.841254804612
 21
-1424.950345801057
 31
0.0
 12
-1430.841254804612
 22
-1421.283679134391
 32
0.0
 13
-1430.841254804612
 23
-1421.283679134391
 33
0.0
  0
MTEXT
  5
41A
330
412
100
AcDbEntity
  8
标注
 62
     3
100
AcDbMText
 10
-1563.841254804612
 20
-1421.283679134391
 30
0.0
 40
20.0
 41
0.0
 71
     5
 72
     1
  1
\A1;266 [10 1/2"]
 73
     1
 44
1.0
  0
POINT
  5
41B
330
412
100
AcDbEntity
  8
Defpoints
 62
     0
100
AcDbPoint
 10
-1696.841254804612
 20
-1138.65993547823
 30
0.0
  0
POINT
  5
41C
330
412
100
AcDbEntity
  8
Defpoints
 62
     0
100
AcDbPoint
 10
-1430.841254804612
 20
-1138.034935478231
 30
0.0
  0
POINT
  5
41D
330
412
100
AcDbEntity
  8
Defpoints
 62
     0
100
AcDbPoint
 10
-1430.841254804612
 20
-1421.283679134391
 30
0.0
  0
ENDBLK
  5
41E
330
412
100
AcDbEntity
  8
0
100
AcDbBlockEnd
  0
BLOCK
  5
420
330
41F
100
AcDbEntity
  8
0
100
AcDbBlockBegin
  2
*D39
 70
     1
 10
0.0
 20
0.0
 30
0.0
  3
*D39
  1

  0
LINE
  5
421
330
41F
100
AcDbEntity
  8
标注
 62
     3
370
    -2
100
AcDbLine
 10
-1730.041254804613
 20
-1266.03493547823
 30
0.0
 11
-1730.041254804613
 21
-1428.476936912438
 31
0.0
  0
LINE
  5
422
330
41F
100
AcDbEntity
  8
标注
 62
     3
370
    -2
100
AcDbLine
 10
-2180.041254804613
 20
-1266.03493547823
 30
0.0
 11
-2180.041254804613
 21
-1428.476936912438
 31
0.0
  0
LINE
  5
423
330
41F
100
AcDbEntity
  8
标注
 62
     3
370
    -2
100
AcDbLine
 10
-1752.041254804613
 20
-1420.476936912438
 30
0.0
 11
-1870.449329786588
 21
-1420.476936912438
 31
0.0
  0
LINE
  5
424
330
41F
100
AcDbEntity
  8
标注
 62
     3
370
    -2
100
AcDbLine
 10
-2158.041254804613
 20
-1420.476936912438
 30
0.0
 11
-2039.633179822637
 21
-1420.476936912438
 31
0.0
  0
SOLID
  5
425
330
41F
100
AcDbEntity
  8
标注
 62
     3
100
AcDbTrace
 10
-1752.041254804613
 20
-1416.810270245771
 30
0.0
 11
-1752.041254804613
 21
-1424.143603579105
 31
0.0
 12
-1730.041254804613
 22
-1420.476936912438
 32
0.0
 13
-1730.041254804613
 23
-1420.476936912438
 33
0.0
  0
SOLID
  5
426
330
41F
100
AcDbEntity
  8
标注
 62
     3
100
AcDbTrace
 10
-2158.041254804613
 20
-1416.810270245771
 30
0.0
 11
-2158.041254804613
 21
-1424.143603579105
 31
0.0
 12
-2180.041254804613
 22
-1420.476936912438
 32
0.0
 13
-2180.041254804613
 23
-1420.476936912438
 33
0.0
  0
MTEXT
  5
427
330
41F
100
AcDbEntity
  8
标注
 62
     3
100
AcDbMText
 10
-1955.041254804613
 20
-1420.476936912438
 30
0.0
 40
20.0
 41
0.0
 71
     5
 72
     1
  1
\A1;450 [17 3/4"]
 73
     1
 44
1.0
  0
POINT
  5
428
330
41F
100
AcDbEntity
  8
Defpoints
 62
     0
100
AcDbPoint
 10
-1730.041254804613
 20
-1241.03493547823
 30
0.0
  0
POINT
  5
429
330
41F
100
AcDbEntity
  8
Defpoints
 62
     0
100
AcDbPoint
 10
-2180.041254804613
 20
-1241.03493547823
 30
0.0
  0
POINT
  5
42A
330
41F
100
AcDbEntity
  8
Defpoints
 62
     0
100
AcDbPoint
 10
-2180.041254804613
 20
-1420.476936912438
 30
0.0
  0
ENDBLK
  5
42B
330
41F
100
AcDbEntity
  8
0
100
AcDbBlockEnd
  0
BLOCK
  5
42D
330
42C
100
AcDbEntity
  8
0
100
AcDbBlockBegin
  2
*D40
 70
     1
 10
0.0
 20
0.0
 30
0.0
  3
*D40
  1

  0
LINE
  5
42E
330
42C
100
AcDbEntity
  8
标注
 62
     3
370
    -2
100
AcDbLine
 10
-2206.066254804614
 20
-1266.03493547823
 30
0.0
 11
-2206.066254804614
 21
-1482.044374649878
 31
0.0
  0
LINE
  5
42F
330
42C
100
AcDbEntity
  8
标注
 62
     3
370
    -2
100
AcDbLine
 10
-1406.066254804611
 20
-1286.03493547823
 30
0.0
 11
-1406.066254804611
 21
-1482.044374649878
 31
0.0
  0
LINE
  5
430
330
42C
100
AcDbEntity
  8
标注
 62
     3
370
    -2
100
AcDbLine
 10
-2184.066254804614
 20
-1474.044374649878
 30
0.0
 11
-1889.994877731793
 21
-1474.044374649878
 31
0.0
  0
LINE
  5
431
330
42C
100
AcDbEntity
  8
标注
 62
     3
370
    -2
100
AcDbLine
 10
-1428.066254804611
 20
-1474.044374649878
 30
0.0
 11
-1722.137631877432
 21
-1474.044374649878
 31
0.0
  0
SOLID
  5
432
330
42C
100
AcDbEntity
  8
标注
 62
     3
100
AcDbTrace
 10
-2184.066254804614
 20
-1470.377707983212
 30
0.0
 11
-2184.066254804614
 21
-1477.711041316545
 31
0.0
 12
-2206.066254804614
 22
-1474.044374649878
 32
0.0
 13
-2206.066254804614
 23
-1474.044374649878
 33
0.0
  0
SOLID
  5
433
330
42C
100
AcDbEntity
  8
标注
 62
     3
100
AcDbTrace
 10
-1428.066254804611
 20
-1470.377707983212
 30
0.0
 11
-1428.066254804611
 21
-1477.711041316545
 31
0.0
 12
-1406.066254804611
 22
-1474.044374649878
 32
0.0
 13
-1406.066254804611
 23
-1474.044374649878
 33
0.0
  0
MTEXT
  5
434
330
42C
100
AcDbEntity
  8
标注
 62
     3
100
AcDbMText
 10
-1806.066254804612
 20
-1474.044374649878
 30
0.0
 40
20.0
 41
0.0
 71
     5
 72
     1
  1
\A1;800 [31 1/2"]
 73
     1
 44
1.0
  0
POINT
  5
435
330
42C
100
AcDbEntity
  8
Defpoints
 62
     0
100
AcDbPoint
 10
-2206.066254804614
 20
-1241.03493547823
 30
0.0
  0
POINT
  5
436
330
42C
100
AcDbEntity
  8
Defpoints
 62
     0
100
AcDbPoint
 10
-1406.066254804611
 20
-1261.03493547823
 30
0.0
  0
POINT
  5
437
330
42C
100
AcDbEntity
  8
Defpoints
 62
     0
100
AcDbPoint
 10
-1406.066254804611
 20
-1474.044374649878
 30
0.0
  0
ENDBLK
  5
438
330
42C
100
AcDbEntity
  8
0
100
AcDbBlockEnd
  0
BLOCK
  5
43A
330
439
100
AcDbEntity
  8
0
100
AcDbBlockBegin
  2
*D41
 70
     1
 10
0.0
 20
0.0
 30
0.0
  3
*D41
  1

  0
LINE
  5
43B
330
439
100
AcDbEntity
  8
标注
 62
     3
370
    -2
100
AcDbLine
 10
-1980.041254804609
 20
-871.0349354782302
 30
0.0
 11
-2286.200665855865
 21
-871.0349354782302
 31
0.0
  0
LINE
  5
43C
330
439
100
AcDbEntity
  8
标注
 62
     3
370
    -2
100
AcDbLine
 10
-2105.041254804613
 20
-1341.03493547823
 30
0.0
 11
-2286.200665855866
 21
-1341.03493547823
 31
0.0
  0
LINE
  5
43D
330
439
100
AcDbEntity
  8
标注
 62
     3
370
    -2
100
AcDbLine
 10
-2278.200665855866
 20
-893.0349354782302
 30
0.0
 11
-2278.200665855866
 21
-1021.443010460205
 31
0.0
  0
LINE
  5
43E
330
439
100
AcDbEntity
  8
标注
 62
     3
370
    -2
100
AcDbLine
 10
-2278.200665855866
 20
-1319.03493547823
 30
0.0
 11
-2278.200665855866
 21
-1190.626860496254
 31
0.0
  0
SOLID
  5
43F
330
439
100
AcDbEntity
  8
标注
 62
     3
100
AcDbTrace
 10
-2281.867332522532
 20
-893.0349354782302
 30
0.0
 11
-2274.533999189199
 21
-893.0349354782302
 31
0.0
 12
-2278.200665855866
 22
-871.0349354782302
 32
0.0
 13
-2278.200665855866
 23
-871.0349354782302
 33
0.0
  0
SOLID
  5
440
330
439
100
AcDbEntity
  8
标注
 62
     3
100
AcDbTrace
 10
-2281.867332522532
 20
-1319.03493547823
 30
0.0
 11
-2274.533999189199
 21
-1319.03493547823
 31
0.0
 12
-2278.200665855866
 22
-1341.03493547823
 32
0.0
 13
-2278.200665855866
 23
-1341.03493547823
 33
0.0
  0
MTEXT
  5
441
330
439
100
AcDbEntity
  8
标注
 62
     3
100
AcDbMText
 10
-2278.200665855866
 20
-1106.03493547823
 30
0.0
 40
20.0
 41
0.0
 71
     5
 72
     1
  1
\A1;470 [18 1/2"]
 11
0.0000000000000001
 21
1.0
 31
0.0
 73
     1
 44
1.0
  0
POINT
  5
442
330
439
100
AcDbEntity
  8
Defpoints
 62
     0
100
AcDbPoint
 10
-1955.041254804609
 20
-871.0349354782302
 30
0.0
  0
POINT
  5
443
330
439
100
AcDbEntity
  8
Defpoints
 62
     0
100
AcDbPoint
 10
-2080.041254804613
 20
-1341.03493547823
 30
0.0
  0
POINT
  5
444
330
439
100
AcDbEntity
  8
Defpoints
 62
     0
100
AcDbPoint
 10
-2278.200665855866
 20
-1341.03493547823
 30
0.0
  0
ENDBLK
  5
445
330
439
100
AcDbEntity
  8
0
100
AcDbBlockEnd
  0
BLOCK
  5
447
330
446
100
AcDbEntity
  8
0
100
AcDbBlockBegin
  2
*D42
 70
     1
 10
0.0
 20
0.0
 30
0.0
  3
*D42
  1

  0
LINE
  5
448
330
446
100
AcDbEntity
  8
标注
 62
     3
370
    -2
100
AcDbLine
 10
-1980.666254804613
 20
-845.6349354782302
 30
0.0
 11
-2347.484285926061
 21
-845.6349354782302
 31
0.0
  0
LINE
  5
449
330
446
100
AcDbEntity
  8
标注
 62
     3
370
    -2
100
AcDbLine
 10
-2105.666254804613
 20
-1366.434935478231
 30
0.0
 11
-2347.484285926062
 21
-1366.434935478231
 31
0.0
  0
LINE
  5
44A
330
446
100
AcDbEntity
  8
标注
 62
     3
370
    -2
100
AcDbLine
 10
-2339.484285926062
 20
-867.6349354782301
 30
0.0
 11
-2339.484285926062
 21
-1021.918857612333
 31
0.0
  0
LINE
  5
44B
330
446
100
AcDbEntity
  8
标注
 62
     3
370
    -2
100
AcDbLine
 10
-2339.484285926062
 20
-1344.434935478231
 30
0.0
 11
-2339.484285926062
 21
-1190.151013344128
 31
0.0
  0
SOLID
  5
44C
330
446
100
AcDbEntity
  8
标注
 62
     3
100
AcDbTrace
 10
-2343.150952592728
 20
-867.6349354782301
 30
0.0
 11
-2335.817619259395
 21
-867.6349354782301
 31
0.0
 12
-2339.484285926062
 22
-845.6349354782302
 32
0.0
 13
-2339.484285926062
 23
-845.6349354782302
 33
0.0
  0
SOLID
  5
44D
330
446
100
AcDbEntity
  8
标注
 62
     3
100
AcDbTrace
 10
-2343.150952592728
 20
-1344.434935478231
 30
0.0
 11
-2335.817619259395
 21
-1344.434935478231
 31
0.0
 12
-2339.484285926062
 22
-1366.434935478231
 32
0.0
 13
-2339.484285926062
 23
-1366.434935478231
 33
0.0
  0
MTEXT
  5
44E
330
446
100
AcDbEntity
  8
标注
 62
     3
100
AcDbMText
 10
-2339.484285926062
 20
-1106.034935478231
 30
0.0
 40
20.0
 41
0.0
 71
     5
 72
     1
  1
\A1;521 [20 1/2"]
 11
0.0000000000000001
 21
1.0
 31
0.0
 73
     1
 44
1.0
  0
POINT
  5
44F
330
446
100
AcDbEntity
  8
Defpoints
 62
     0
100
AcDbPoint
 10
-1955.666254804613
 20
-845.6349354782302
 30
0.0
  0
POINT
  5
450
330
446
100
AcDbEntity
  8
Defpoints
 62
     0
100
AcDbPoint
 10
-2080.666254804613
 20
-1366.434935478231
 30
0.0
  0
POINT
  5
451
330
446
100
AcDbEntity
  8
Defpoints
 62
     0
100
AcDbPoint
 10
-2339.484285926062
 20
-1366.434935478231
 30
0.0
  0
ENDBLK
  5
452
330
446
100
AcDbEntity
  8
0
100
AcDbBlockEnd
  0
BLOCK
  5
4F6
330
4EB
100
AcDbEntity
  8
0
100
AcDbBlockBegin
  2
*D44
 70
     1
 10
0.0
 20
0.0
 30
0.0
  3
*D44
  1

  0
LINE
  5
743
330
4EB
100
AcDbEntity
  8
标注
370
    -2
100
AcDbLine
 10
96.62664055226834
 20
227.670013658806
 30
0.0
 11
98.60117122314928
 21
227.670013658806
 31
0.0
  0
LINE
  5
744
330
4EB
100
AcDbEntity
  8
标注
370
    -2
100
AcDbLine
 10
92.28114879049147
 20
220.6608875449765
 30
0.0
 11
98.60117122314928
 21
220.6608875449765
 31
0.0
  0
LINE
  5
745
330
4EB
100
AcDbEntity
  8
标注
370
    -2
100
AcDbLine
 10
98.28117122314928
 20
227.020013658806
 30
0.0
 11
98.28117122314928
 21
224.7987839352246
 31
0.0
  0
LINE
  5
746
330
4EB
100
AcDbEntity
  8
标注
370
    -2
100
AcDbLine
 10
98.28117122314928
 20
221.3108875449766
 30
0.0
 11
98.28117122314928
 21
223.5321172685579
 31
0.0
  0
SOLID
  5
747
330
4EB
100
AcDbEntity
  8
标注
100
AcDbTrace
 10
98.17283788981596
 20
227.020013658806
 30
0.0
 11
98.38950455648262
 21
227.020013658806
 31
0.0
 12
98.28117122314928
 22
227.670013658806
 32
0.0
 13
98.28117122314928
 23
227.670013658806
 33
0.0
  0
SOLID
  5
748
330
4EB
100
AcDbEntity
  8
标注
100
AcDbTrace
 10
98.17283788981594
 20
221.3108875449766
 30
0.0
 11
98.3895045564826
 21
221.3108875449766
 31
0.0
 12
98.28117122314928
 22
220.6608875449765
 32
0.0
 13
98.28117122314928
 23
220.6608875449765
 33
0.0
  0
MTEXT
  5
749
330
4EB
100
AcDbEntity
  8
标注
100
AcDbMText
 10
98.28117122314925
 20
224.1654506018913
 30
0.0
 40
0.65
 41
0.0
 71
     5
 72
     1
  1
\A1;7"
 11
0.0000000000000001
 21
1.0
 31
0.0
 73
     1
 44
1.0
  0
POINT
  5
74A
330
4EB
100
AcDbEntity
  8
Defpoints
 62
     0
100
AcDbPoint
 10
95.74664055226833
 20
227.670013658806
 30
0.0
  0
POINT
  5
74B
330
4EB
100
AcDbEntity
  8
Defpoints
 62
     0
100
AcDbPoint
 10
91.40114879049148
 20
220.6608875449765
 30
0.0
  0
POINT
  5
74C
330
4EB
100
AcDbEntity
  8
Defpoints
 62
     0
100
AcDbPoint
 10
98.28117122314928
 20
220.6608875449765
 30
0.0
  0
ENDBLK
  5
4F7
330
4EB
100
AcDbEntity
  8
0
100
AcDbBlockEnd
  0
BLOCK
  5
503
330
4F8
100
AcDbEntity
  8
0
100
AcDbBlockBegin
  2
*D45
 70
     1
 10
0.0
 20
0.0
 30
0.0
  3
*D45
  1

  0
LINE
  5
66F
330
4F8
100
AcDbEntity
  8
标注
370
    -2
100
AcDbLine
 10
63.37057756014234
 20
226.864105212042
 30
0.0
 11
61.04214508527022
 21
226.864105212042
 31
0.0
  0
LINE
  5
670
330
4F8
100
AcDbEntity
  8
标注
370
    -2
100
AcDbLine
 10
71.46603068029818
 20
217.8628531139588
 30
0.0
 11
61.04214508527022
 21
217.8628531139588
 31
0.0
  0
LINE
  5
671
330
4F8
100
AcDbEntity
  8
标注
370
    -2
100
AcDbLine
 10
61.36214508527022
 20
226.2141052120419
 30
0.0
 11
61.36214508527022
 21
222.9968124963336
 31
0.0
  0
LINE
  5
672
330
4F8
100
AcDbEntity
  8
标注
370
    -2
100
AcDbLine
 10
61.36214508527022
 20
218.5128531139589
 30
0.0
 11
61.36214508527022
 21
221.730145829667
 31
0.0
  0
SOLID
  5
673
330
4F8
100
AcDbEntity
  8
标注
100
AcDbTrace
 10
61.25381175193688
 20
226.2141052120419
 30
0.0
 11
61.47047841860356
 21
226.2141052120419
 31
0.0
 12
61.36214508527022
 22
226.864105212042
 32
0.0
 13
61.36214508527022
 23
226.864105212042
 33
0.0
  0
SOLID
  5
674
330
4F8
100
AcDbEntity
  8
标注
100
AcDbTrace
 10
61.25381175193688
 20
218.5128531139589
 30
0.0
 11
61.47047841860356
 21
218.5128531139589
 31
0.0
 12
61.36214508527022
 22
217.8628531139588
 32
0.0
 13
61.36214508527022
 23
217.8628531139588
 33
0.0
  0
MTEXT
  5
675
330
4F8
100
AcDbEntity
  8
标注
100
AcDbMText
 10
61.36214508527018
 20
222.3634791630003
 30
0.0
 40
0.65
 41
0.0
 71
     5
 72
     1
  1
\A1;9"
 11
0.0000000000000001
 21
1.0
 31
0.0
 73
     1
 44
1.0
  0
POINT
  5
676
330
4F8
100
AcDbEntity
  8
Defpoints
 62
     0
100
AcDbPoint
 10
64.25057756014235
 20
226.8641052120419
 30
0.0
  0
POINT
  5
677
330
4F8
100
AcDbEntity
  8
Defpoints
 62
     0
100
AcDbPoint
 10
72.34603068029817
 20
217.8628531139588
 30
0.0
  0
POINT
  5
678
330
4F8
100
AcDbEntity
  8
Defpoints
 62
     0
100
AcDbPoint
 10
61.36214508527022
 20
217.8628531139588
 30
0.0
  0
ENDBLK
  5
504
330
4F8
100
AcDbEntity
  8
0
100
AcDbBlockEnd
  0
BLOCK
  5
510
330
505
100
AcDbEntity
  8
0
100
AcDbBlockBegin
  2
*D46
 70
     1
 10
0.0
 20
0.0
 30
0.0
  3
*D46
  1

  0
LINE
  5
72F
330
505
100
AcDbEntity
  8
标注
370
    -2
100
AcDbLine
 10
90.4150263790399
 20
206.1436763449231
 30
0.0
 11
98.80269840832943
 21
206.1436763449231
 31
0.0
  0
LINE
  5
730
330
505
100
AcDbEntity
  8
标注
370
    -2
100
AcDbLine
 10
90.41502637903979
 20
190.1594243764192
 30
0.0
 11
98.80269840832943
 21
190.1594243764192
 31
0.0
  0
LINE
  5
731
330
505
100
AcDbEntity
  8
标注
370
    -2
100
AcDbLine
 10
98.48269840832942
 20
205.4936763449231
 30
0.0
 11
98.48269840832942
 21
199.0015503606711
 31
0.0
  0
LINE
  5
732
330
505
100
AcDbEntity
  8
标注
370
    -2
100
AcDbLine
 10
98.48269840832942
 20
190.8094243764192
 30
0.0
 11
98.48269840832942
 21
197.3015503606711
 31
0.0
  0
SOLID
  5
733
330
505
100
AcDbEntity
  8
标注
100
AcDbTrace
 10
98.3743650749961
 20
205.4936763449231
 30
0.0
 11
98.59103174166277
 21
205.4936763449231
 31
0.0
 12
98.48269840832942
 22
206.1436763449231
 32
0.0
 13
98.48269840832942
 23
206.1436763449231
 33
0.0
  0
SOLID
  5
734
330
505
100
AcDbEntity
  8
标注
100
AcDbTrace
 10
98.3743650749961
 20
190.8094243764192
 30
0.0
 11
98.59103174166277
 21
190.8094243764192
 31
0.0
 12
98.48269840832942
 22
190.1594243764192
 32
0.0
 13
98.48269840832942
 23
190.1594243764192
 33
0.0
  0
MTEXT
  5
735
330
505
100
AcDbEntity
  8
标注
100
AcDbMText
 10
98.48269840832941
 20
198.1515503606711
 30
0.0
 40
0.65
 41
0.0
 71
     5
 72
     1
  1
\A1;16"
 11
0.0000000000000001
 21
1.0
 31
0.0
 73
     1
 44
1.0
  0
POINT
  5
736
330
505
100
AcDbEntity
  8
Defpoints
 62
     0
100
AcDbPoint
 10
89.53502637903991
 20
206.1436763449231
 30
0.0
  0
POINT
  5
737
330
505
100
AcDbEntity
  8
Defpoints
 62
     0
100
AcDbPoint
 10
89.53502637903978
 20
190.1594243764192
 30
0.0
  0
POINT
  5
738
330
505
100
AcDbEntity
  8
Defpoints
 62
     0
100
AcDbPoint
 10
98.48269840832942
 20
190.1594243764192
 30
0.0
  0
ENDBLK
  5
511
330
505
100
AcDbEntity
  8
0
100
AcDbBlockEnd
  0
BLOCK
  5
51D
330
512
100
AcDbEntity
  8
0
100
AcDbBlockBegin
  2
*D47
 70
     1
 10
0.0
 20
0.0
 30
0.0
  3
*D47
  1

  0
LINE
  5
725
330
512
100
AcDbEntity
  8
标注
370
    -2
100
AcDbLine
 10
92.47703425305564
 20
207.1436763449231
 30
0.0
 11
101.4070415025555
 21
207.1436763449231
 31
0.0
  0
LINE
  5
726
330
512
100
AcDbEntity
  8
标注
370
    -2
100
AcDbLine
 10
92.47703425305564
 20
189.1594243764192
 30
0.0
 11
101.4070415025555
 21
189.1594243764192
 31
0.0
  0
LINE
  5
727
330
512
100
AcDbEntity
  8
标注
370
    -2
100
AcDbLine
 10
101.0870415025555
 20
206.4936763449231
 30
0.0
 11
101.0870415025555
 21
199.0015503606711
 31
0.0
  0
LINE
  5
728
330
512
100
AcDbEntity
  8
标注
370
    -2
100
AcDbLine
 10
101.0870415025555
 20
189.8094243764191
 30
0.0
 11
101.0870415025555
 21
197.3015503606712
 31
0.0
  0
SOLID
  5
729
330
512
100
AcDbEntity
  8
标注
100
AcDbTrace
 10
100.9787081692221
 20
206.4936763449231
 30
0.0
 11
101.1953748358888
 21
206.4936763449231
 31
0.0
 12
101.0870415025555
 22
207.1436763449231
 32
0.0
 13
101.0870415025555
 23
207.1436763449231
 33
0.0
  0
SOLID
  5
72A
330
512
100
AcDbEntity
  8
标注
100
AcDbTrace
 10
100.9787081692221
 20
189.8094243764191
 30
0.0
 11
101.1953748358888
 21
189.8094243764191
 31
0.0
 12
101.0870415025555
 22
189.1594243764192
 32
0.0
 13
101.0870415025555
 23
189.1594243764192
 33
0.0
  0
MTEXT
  5
72B
330
512
100
AcDbEntity
  8
标注
100
AcDbMText
 10
101.0870415025554
 20
198.1515503606712
 30
0.0
 40
0.65
 41
0.0
 71
     5
 72
     1
  1
\A1;18"
 11
0.0000000000000001
 21
1.0
 31
0.0
 73
     1
 44
1.0
  0
POINT
  5
72C
330
512
100
AcDbEntity
  8
Defpoints
 62
     0
100
AcDbPoint
 10
91.59703425305565
 20
207.1436763449231
 30
0.0
  0
POINT
  5
72D
330
512
100
AcDbEntity
  8
Defpoints
 62
     0
100
AcDbPoint
 10
91.59703425305565
 20
189.1594243764192
 30
0.0
  0
POINT
  5
72E
330
512
100
AcDbEntity
  8
Defpoints
 62
     0
100
AcDbPoint
 10
101.0870415025555
 20
189.1594243764192
 30
0.0
  0
ENDBLK
  5
51E
330
512
100
AcDbEntity
  8
0
100
AcDbBlockEnd
  0
BLOCK
  5
52A
330
51F
100
AcDbEntity
  8
0
100
AcDbBlockBegin
  2
*D48
 70
     1
 10
0.0
 20
0.0
 30
0.0
  3
*D48
  1

  0
LINE
  5
71B
330
51F
100
AcDbEntity
  8
标注
370
    -2
100
AcDbLine
 10
84.298805906599
 20
197.2469440614585
 30
0.0
 11
84.298805906599
 21
186.6800250198774
 31
0.0
  0
LINE
  5
71C
330
51F
100
AcDbEntity
  8
标注
370
    -2
100
AcDbLine
 10
94.77124685148078
 20
197.2715503606711
 30
0.0
 11
94.77124685148078
 21
186.6800250198774
 31
0.0
  0
LINE
  5
71D
330
51F
100
AcDbEntity
  8
标注
370
    -2
100
AcDbLine
 10
84.94880590659901
 20
187.0000250198774
 30
0.0
 11
87.54752637903989
 21
187.0000250198774
 31
0.0
  0
LINE
  5
71E
330
51F
100
AcDbEntity
  8
标注
370
    -2
100
AcDbLine
 10
94.12124685148077
 20
187.0000250198774
 30
0.0
 11
91.52252637903989
 21
187.0000250198774
 31
0.0
  0
SOLID
  5
71F
330
51F
100
AcDbEntity
  8
标注
100
AcDbTrace
 10
84.94880590659901
 20
187.1083583532108
 30
0.0
 11
84.94880590659901
 21
186.8916916865441
 31
0.0
 12
84.298805906599
 22
187.0000250198774
 32
0.0
 13
84.298805906599
 23
187.0000250198774
 33
0.0
  0
SOLID
  5
720
330
51F
100
AcDbEntity
  8
标注
100
AcDbTrace
 10
94.12124685148077
 20
187.1083583532108
 30
0.0
 11
94.12124685148077
 21
186.8916916865441
 31
0.0
 12
94.77124685148078
 22
187.0000250198774
 32
0.0
 13
94.77124685148078
 23
187.0000250198774
 33
0.0
  0
MTEXT
  5
721
330
51F
100
AcDbEntity
  8
标注
100
AcDbMText
 10
89.53502637903989
 20
187.0000250198774
 30
0.0
 40
0.65
 41
0.0
 71
     5
 72
     1
  1
\A1;10 1/2"
 73
     1
 44
1.0
  0
POINT
  5
722
330
51F
100
AcDbEntity
  8
Defpoints
 62
     0
100
AcDbPoint
 10
84.298805906599
 20
198.1269440614586
 30
0.0
  0
POINT
  5
723
330
51F
100
AcDbEntity
  8
Defpoints
 62
     0
100
AcDbPoint
 10
94.77124685148078
 20
198.1515503606711
 30
0.0
  0
POINT
  5
724
330
51F
100
AcDbEntity
  8
Defpoints
 62
     0
100
AcDbPoint
 10
94.77124685148078
 20
187.0000250198774
 30
0.0
  0
ENDBLK
  5
52B
330
51F
100
AcDbEntity
  8
0
100
AcDbBlockEnd
  0
BLOCK
  5
537
330
52C
100
AcDbEntity
  8
0
100
AcDbBlockBegin
  2
*D49
 70
     1
 10
0.0
 20
0.0
 30
0.0
  3
*D49
  1

  0
LINE
  5
711
330
52C
100
AcDbEntity
  8
标注
370
    -2
100
AcDbLine
 10
82.99171929242572
 20
193.2164322504349
 30
0.0
 11
82.99171929242572
 21
186.7117865246787
 31
0.0
  0
LINE
  5
712
330
52C
100
AcDbEntity
  8
标注
370
    -2
100
AcDbLine
 10
65.27518385935478
 20
193.2164322504349
 30
0.0
 11
65.27518385935478
 21
186.7117865246787
 31
0.0
  0
LINE
  5
713
330
52C
100
AcDbEntity
  8
标注
370
    -2
100
AcDbLine
 10
82.3417192924257
 20
187.0317865246787
 30
0.0
 11
76.28345157589025
 21
187.0317865246787
 31
0.0
  0
LINE
  5
714
330
52C
100
AcDbEntity
  8
标注
370
    -2
100
AcDbLine
 10
65.92518385935479
 20
187.0317865246787
 30
0.0
 11
71.98345157589024
 21
187.0317865246787
 31
0.0
  0
SOLID
  5
715
330
52C
100
AcDbEntity
  8
标注
100
AcDbTrace
 10
82.3417192924257
 20
187.140119858012
 30
0.0
 11
82.3417192924257
 21
186.9234531913454
 31
0.0
 12
82.99171929242572
 22
187.0317865246787
 32
0.0
 13
82.99171929242572
 23
187.0317865246787
 33
0.0
  0
SOLID
  5
716
330
52C
100
AcDbEntity
  8
标注
100
AcDbTrace
 10
65.92518385935479
 20
187.140119858012
 30
0.0
 11
65.92518385935479
 21
186.9234531913454
 31
0.0
 12
65.27518385935478
 22
187.0317865246787
 32
0.0
 13
65.27518385935478
 23
187.0317865246787
 33
0.0
  0
MTEXT
  5
717
330
52C
100
AcDbEntity
  8
标注
100
AcDbMText
 10
74.13345157589025
 20
187.0317865246787
 30
0.0
 40
0.65
 41
0.0
 71
     5
 72
     1
  1
\A1;17 3/4"
 73
     1
 44
1.0
  0
POINT
  5
718
330
52C
100
AcDbEntity
  8
Defpoints
 62
     0
100
AcDbPoint
 10
82.99171929242572
 20
194.0964322504349
 30
0.0
  0
POINT
  5
719
330
52C
100
AcDbEntity
  8
Defpoints
 62
     0
100
AcDbPoint
 10
65.27518385935478
 20
194.0964322504349
 30
0.0
  0
POINT
  5
71A
330
52C
100
AcDbEntity
  8
Defpoints
 62
     0
100
AcDbPoint
 10
65.27518385935478
 20
187.0317865246787
 30
0.0
  0
ENDBLK
  5
538
330
52C
100
AcDbEntity
  8
0
100
AcDbBlockEnd
  0
BLOCK
  5
544
330
539
100
AcDbEntity
  8
0
100
AcDbBlockBegin
  2
*D50
 70
     1
 10
0.0
 20
0.0
 30
0.0
  3
*D50
  1

  0
LINE
  5
707
330
539
100
AcDbEntity
  8
标注
370
    -2
100
AcDbLine
 10
64.25057756014223
 20
193.2164322504349
 30
0.0
 11
64.25057756014223
 21
184.6028322830472
 31
0.0
  0
LINE
  5
708
330
539
100
AcDbEntity
  8
标注
370
    -2
100
AcDbLine
 10
95.74664055226833
 20
192.4290306756318
 30
0.0
 11
95.74664055226833
 21
184.6028322830472
 31
0.0
  0
LINE
  5
709
330
539
100
AcDbEntity
  8
标注
370
    -2
100
AcDbLine
 10
64.90057756014223
 20
184.9228322830472
 30
0.0
 11
77.95694238953861
 21
184.9228322830472
 31
0.0
  0
LINE
  5
70A
330
539
100
AcDbEntity
  8
标注
370
    -2
100
AcDbLine
 10
95.09664055226833
 20
184.9228322830472
 30
0.0
 11
82.04027572287195
 21
184.9228322830472
 31
0.0
  0
SOLID
  5
70B
330
539
100
AcDbEntity
  8
标注
100
AcDbTrace
 10
64.90057756014223
 20
185.0311656163805
 30
0.0
 11
64.90057756014223
 21
184.8144989497139
 31
0.0
 12
64.25057756014223
 22
184.9228322830472
 32
0.0
 13
64.25057756014223
 23
184.9228322830472
 33
0.0
  0
SOLID
  5
70C
330
539
100
AcDbEntity
  8
标注
100
AcDbTrace
 10
95.09664055226833
 20
185.0311656163805
 30
0.0
 11
95.09664055226833
 21
184.8144989497139
 31
0.0
 12
95.74664055226833
 22
184.9228322830472
 32
0.0
 13
95.74664055226833
 23
184.9228322830472
 33
0.0
  0
MTEXT
  5
70D
330
539
100
AcDbEntity
  8
标注
100
AcDbMText
 10
79.99860905620528
 20
184.9228322830472
 30
0.0
 40
0.65
 41
0.0
 71
     5
 72
     1
  1
\A1;31 1/2"
 73
     1
 44
1.0
  0
POINT
  5
70E
330
539
100
AcDbEntity
  8
Defpoints
 62
     0
100
AcDbPoint
 10
64.25057756014223
 20
194.0964322504349
 30
0.0
  0
POINT
  5
70F
330
539
100
AcDbEntity
  8
Defpoints
 62
     0
100
AcDbPoint
 10
95.74664055226833
 20
193.3090306756318
 30
0.0
  0
POINT
  5
710
330
539
100
AcDbEntity
  8
Defpoints
 62
     0
100
AcDbPoint
 10
95.74664055226833
 20
184.9228322830472
 30
0.0
  0
ENDBLK
  5
545
330
539
100
AcDbEntity
  8
0
100
AcDbBlockEnd
  0
BLOCK
  5
551
330
546
100
AcDbEntity
  8
0
100
AcDbBlockBegin
  2
*D51
 70
     1
 10
0.0
 20
0.0
 30
0.0
  3
*D51
  1

  0
LINE
  5
6FD
330
546
100
AcDbEntity
  8
标注
370
    -2
100
AcDbLine
 10
73.25345157589038
 20
208.6633613842932
 30
0.0
 11
61.09064011717947
 21
208.6633613842933
 31
0.0
  0
LINE
  5
6FE
330
546
100
AcDbEntity
  8
标注
370
    -2
100
AcDbLine
 10
68.33219173337056
 20
190.1594243764192
 30
0.0
 11
61.09064011717947
 21
190.1594243764192
 31
0.0
  0
LINE
  5
6FF
330
546
100
AcDbEntity
  8
标注
370
    -2
100
AcDbLine
 10
61.41064011717947
 20
208.0133613842932
 30
0.0
 11
61.41064011717947
 21
201.4530595470229
 31
0.0
  0
LINE
  5
700
330
546
100
AcDbEntity
  8
标注
370
    -2
100
AcDbLine
 10
61.41064011717947
 20
190.8094243764192
 30
0.0
 11
61.41064011717947
 21
197.3697262136895
 31
0.0
  0
SOLID
  5
701
330
546
100
AcDbEntity
  8
标注
100
AcDbTrace
 10
61.30230678384614
 20
208.0133613842932
 30
0.0
 11
61.51897345051281
 21
208.0133613842932
 31
0.0
 12
61.41064011717947
 22
208.6633613842933
 32
0.0
 13
61.41064011717947
 23
208.6633613842933
 33
0.0
  0
SOLID
  5
702
330
546
100
AcDbEntity
  8
标注
100
AcDbTrace
 10
61.30230678384613
 20
190.8094243764192
 30
0.0
 11
61.5189734505128
 21
190.8094243764192
 31
0.0
 12
61.41064011717947
 22
190.1594243764192
 32
0.0
 13
61.41064011717947
 23
190.1594243764192
 33
0.0
  0
MTEXT
  5
703
330
546
100
AcDbEntity
  8
标注
100
AcDbMText
 10
61.41064011717944
 20
199.4113928803562
 30
0.0
 40
0.65
 41
0.0
 71
     5
 72
     1
  1
\A1;18 1/2"
 11
0.0000000000000001
 21
1.0
 31
0.0
 73
     1
 44
1.0
  0
POINT
  5
704
330
546
100
AcDbEntity
  8
Defpoints
 62
     0
100
AcDbPoint
 10
74.13345157589038
 20
208.6633613842932
 30
0.0
  0
POINT
  5
705
330
546
100
AcDbEntity
  8
Defpoints
 62
     0
100
AcDbPoint
 10
69.21219173337056
 20
190.1594243764192
 30
0.0
  0
POINT
  5
706
330
546
100
AcDbEntity
  8
Defpoints
 62
     0
100
AcDbPoint
 10
61.41064011717947
 20
190.1594243764192
 30
0.0
  0
ENDBLK
  5
552
330
546
100
AcDbEntity
  8
0
100
AcDbBlockEnd
  0
BLOCK
  5
55E
330
553
100
AcDbEntity
  8
0
100
AcDbBlockBegin
  2
*D52
 70
     1
 10
0.0
 20
0.0
 30
0.0
  3
*D52
  1

  0
LINE
  5
6F3
330
553
100
AcDbEntity
  8
标注
370
    -2
100
AcDbLine
 10
73.2288452766777
 20
209.6633613842932
 30
0.0
 11
58.67789916953398
 21
209.6633613842932
 31
0.0
  0
LINE
  5
6F4
330
553
100
AcDbEntity
  8
标注
370
    -2
100
AcDbLine
 10
68.307585434158
 20
189.1594243764191
 30
0.0
 11
58.67789916953398
 21
189.1594243764191
 31
0.0
  0
LINE
  5
6F5
330
553
100
AcDbEntity
  8
标注
370
    -2
100
AcDbLine
 10
58.99789916953398
 20
209.0133613842932
 30
0.0
 11
58.99789916953398
 21
201.5072262136895
 31
0.0
  0
LINE
  5
6F6
330
553
100
AcDbEntity
  8
标注
370
    -2
100
AcDbLine
 10
58.99789916953398
 20
189.8094243764191
 30
0.0
 11
58.99789916953398
 21
197.3155595470228
 31
0.0
  0
SOLID
  5
6F7
330
553
100
AcDbEntity
  8
标注
100
AcDbTrace
 10
58.88956583620065
 20
209.0133613842932
 30
0.0
 11
59.10623250286732
 21
209.0133613842932
 31
0.0
 12
58.99789916953398
 22
209.6633613842932
 32
0.0
 13
58.99789916953398
 23
209.6633613842932
 33
0.0
  0
SOLID
  5
6F8
330
553
100
AcDbEntity
  8
标注
100
AcDbTrace
 10
58.88956583620064
 20
189.8094243764191
 30
0.0
 11
59.10623250286731
 21
189.8094243764191
 31
0.0
 12
58.99789916953398
 22
189.1594243764191
 32
0.0
 13
58.99789916953398
 23
189.1594243764191
 33
0.0
  0
MTEXT
  5
6F9
330
553
100
AcDbEntity
  8
标注
100
AcDbMText
 10
58.99789916953395
 20
199.4113928803562
 30
0.0
 40
0.65
 41
0.0
 71
     5
 72
     1
  1
\A1;20 1/2"
 11
0.0000000000000001
 21
1.0
 31
0.0
 73
     1
 44
1.0
  0
POINT
  5
6FA
330
553
100
AcDbEntity
  8
Defpoints
 62
     0
100
AcDbPoint
 10
74.1088452766777
 20
209.6633613842932
 30
0.0
  0
POINT
  5
6FB
330
553
100
AcDbEntity
  8
Defpoints
 62
     0
100
AcDbPoint
 10
69.18758543415799
 20
189.1594243764191
 30
0.0
  0
POINT
  5
6FC
330
553
100
AcDbEntity
  8
Defpoints
 62
     0
100
AcDbPoint
 10
58.99789916953398
 20
189.1594243764191
 30
0.0
  0
ENDBLK
  5
55F
330
553
100
AcDbEntity
  8
0
100
AcDbBlockEnd
  0
BLOCK
  5
6BC
330
6B2
100
AcDbEntity
  8
0
100
AcDbBlockBegin
  2
*D55
 70
     1
 10
0.0
 20
0.0
 30
0.0
  3
*D55
  1

  0
LINE
  5
739
330
6B2
100
AcDbEntity
  8
标注
370
    -2
100
AcDbLine
 10
63.37057756014234
 20
227.6700136588063
 30
0.0
 11
61.13300464475894
 21
227.6700136588063
 31
0.0
  0
LINE
  5
73A
330
6B2
100
AcDbEntity
  8
标注
370
    -2
100
AcDbLine
 10
71.13138501096234
 20
218.6687615607247
 30
0.0
 11
61.13300464475894
 21
218.6687615607247
 31
0.0
  0
LINE
  5
73B
330
6B2
100
AcDbEntity
  8
标注
370
    -2
100
AcDbLine
 10
61.45300464475894
 20
227.0200136588063
 30
0.0
 11
61.45300464475894
 21
223.8027209430988
 31
0.0
  0
LINE
  5
73C
330
6B2
100
AcDbEntity
  8
标注
370
    -2
100
AcDbLine
 10
61.45300464475894
 20
219.3187615607247
 30
0.0
 11
61.45300464475894
 21
222.5360542764322
 31
0.0
  0
SOLID
  5
73D
330
6B2
100
AcDbEntity
  8
标注
100
AcDbTrace
 10
61.34467131142561
 20
227.0200136588063
 30
0.0
 11
61.56133797809228
 21
227.0200136588063
 31
0.0
 12
61.45300464475894
 22
227.6700136588063
 32
0.0
 13
61.45300464475894
 23
227.6700136588063
 33
0.0
  0
SOLID
  5
73E
330
6B2
100
AcDbEntity
  8
标注
100
AcDbTrace
 10
61.34467131142561
 20
219.3187615607247
 30
0.0
 11
61.56133797809228
 21
219.3187615607247
 31
0.0
 12
61.45300464475894
 22
218.6687615607247
 32
0.0
 13
61.45300464475894
 23
218.6687615607247
 33
0.0
  0
MTEXT
  5
73F
330
6B2
100
AcDbEntity
  8
标注
100
AcDbMText
 10
61.45300464475891
 20
223.1693876097655
 30
0.0
 40
0.65
 41
0.0
 71
     5
 72
     1
  1
\A1;9"
 11
0.0000000000000001
 21
1.0
 31
0.0
 73
     1
 44
1.0
  0
POINT
  5
740
330
6B2
100
AcDbEntity
  8
Defpoints
 62
     0
100
AcDbPoint
 10
64.25057756014235
 20
227.6700136588063
 30
0.0
  0
POINT
  5
741
330
6B2
100
AcDbEntity
  8
Defpoints
 62
     0
100
AcDbPoint
 10
72.01138501096234
 20
218.6687615607247
 30
0.0
  0
POINT
  5
742
330
6B2
100
AcDbEntity
  8
Defpoints
 62
     0
100
AcDbPoint
 10
61.45300464475894
 20
218.6687615607247
 30
0.0
  0
ENDBLK
  5
6BD
330
6B2
100
AcDbEntity
  8
0
100
AcDbBlockEnd
  0
BLOCK
  5
76B
330
76A
100
AcDbEntity
  8
0
100
AcDbBlockBegin
  2
*D59
 70
     1
 10
0.0
 20
0.0
 30
0.0
  3
*D59
  1

  0
LINE
  5
76C
330
76A
100
AcDbEntity
  8
标注
370
    -2
100
AcDbLine
 10
90.4150263790399
 20
206.1436763449231
 30
0.0
 11
98.80269840832943
 21
206.1436763449231
 31
0.0
  0
LINE
  5
76D
330
76A
100
AcDbEntity
  8
标注
370
    -2
100
AcDbLine
 10
90.41502637903979
 20
190.1594243764192
 30
0.0
 11
98.80269840832943
 21
190.1594243764192
 31
0.0
  0
LINE
  5
76E
330
76A
100
AcDbEntity
  8
标注
370
    -2
100
AcDbLine
 10
98.48269840832942
 20
205.4936763449231
 30
0.0
 11
98.48269840832942
 21
199.0015503606711
 31
0.0
  0
LINE
  5
76F
330
76A
100
AcDbEntity
  8
标注
370
    -2
100
AcDbLine
 10
98.48269840832942
 20
190.8094243764192
 30
0.0
 11
98.48269840832942
 21
197.3015503606711
 31
0.0
  0
SOLID
  5
770
330
76A
100
AcDbEntity
  8
标注
100
AcDbTrace
 10
98.3743650749961
 20
205.4936763449231
 30
0.0
 11
98.59103174166277
 21
205.4936763449231
 31
0.0
 12
98.48269840832942
 22
206.1436763449231
 32
0.0
 13
98.48269840832942
 23
206.1436763449231
 33
0.0
  0
SOLID
  5
771
330
76A
100
AcDbEntity
  8
标注
100
AcDbTrace
 10
98.3743650749961
 20
190.8094243764192
 30
0.0
 11
98.59103174166277
 21
190.8094243764192
 31
0.0
 12
98.48269840832942
 22
190.1594243764192
 32
0.0
 13
98.48269840832942
 23
190.1594243764192
 33
0.0
  0
MTEXT
  5
772
330
76A
100
AcDbEntity
  8
标注
100
AcDbMText
 10
98.48269840832941
 20
198.1515503606711
 30
0.0
 40
0.65
 41
0.0
 71
     5
 72
     1
  1
\A1;16"
 11
0.0000000000000001
 21
1.0
 31
0.0
 73
     1
 44
1.0
  0
POINT
  5
773
330
76A
100
AcDbEntity
  8
Defpoints
 62
     0
100
AcDbPoint
 10
89.53502637903991
 20
206.1436763449231
 30
0.0
  0
POINT
  5
774
330
76A
100
AcDbEntity
  8
Defpoints
 62
     0
100
AcDbPoint
 10
89.53502637903978
 20
190.1594243764192
 30
0.0
  0
POINT
  5
775
330
76A
100
AcDbEntity
  8
Defpoints
 62
     0
100
AcDbPoint
 10
98.48269840832942
 20
190.1594243764192
 30
0.0
  0
ENDBLK
  5
776
330
76A
100
AcDbEntity
  8
0
100
AcDbBlockEnd
  0
BLOCK
  5
778
330
777
100
AcDbEntity
  8
0
100
AcDbBlockBegin
  2
*D60
 70
     1
 10
0.0
 20
0.0
 30
0.0
  3
*D60
  1

  0
LINE
  5
779
330
777
100
AcDbEntity
  8
标注
370
    -2
100
AcDbLine
 10
92.47703425305564
 20
207.1436763449231
 30
0.0
 11
101.4070415025555
 21
207.1436763449231
 31
0.0
  0
LINE
  5
77A
330
777
100
AcDbEntity
  8
标注
370
    -2
100
AcDbLine
 10
92.47703425305564
 20
189.1594243764192
 30
0.0
 11
101.4070415025555
 21
189.1594243764192
 31
0.0
  0
LINE
  5
77B
330
777
100
AcDbEntity
  8
标注
370
    -2
100
AcDbLine
 10
101.0870415025555
 20
206.4936763449231
 30
0.0
 11
101.0870415025555
 21
199.0015503606711
 31
0.0
  0
LINE
  5
77C
330
777
100
AcDbEntity
  8
标注
370
    -2
100
AcDbLine
 10
101.0870415025555
 20
189.8094243764191
 30
0.0
 11
101.0870415025555
 21
197.3015503606712
 31
0.0
  0
SOLID
  5
77D
330
777
100
AcDbEntity
  8
标注
100
AcDbTrace
 10
100.9787081692221
 20
206.4936763449231
 30
0.0
 11
101.1953748358888
 21
206.4936763449231
 31
0.0
 12
101.0870415025555
 22
207.1436763449231
 32
0.0
 13
101.0870415025555
 23
207.1436763449231
 33
0.0
  0
SOLID
  5
77E
330
777
100
AcDbEntity
  8
标注
100
AcDbTrace
 10
100.9787081692221
 20
189.8094243764191
 30
0.0
 11
101.1953748358888
 21
189.8094243764191
 31
0.0
 12
101.0870415025555
 22
189.1594243764192
 32
0.0
 13
101.0870415025555
 23
189.1594243764192
 33
0.0
  0
MTEXT
  5
77F
330
777
100
AcDbEntity
  8
标注
100
AcDbMText
 10
101.0870415025554
 20
198.1515503606712
 30
0.0
 40
0.65
 41
0.0
 71
     5
 72
     1
  1
\A1;18"
 11
0.0000000000000001
 21
1.0
 31
0.0
 73
     1
 44
1.0
  0
POINT
  5
780
330
777
100
AcDbEntity
  8
Defpoints
 62
     0
100
AcDbPoint
 10
91.59703425305565
 20
207.1436763449231
 30
0.0
  0
POINT
  5
781
330
777
100
AcDbEntity
  8
Defpoints
 62
     0
100
AcDbPoint
 10
91.59703425305565
 20
189.1594243764192
 30
0.0
  0
POINT
  5
782
330
777
100
AcDbEntity
  8
Defpoints
 62
     0
100
AcDbPoint
 10
101.0870415025555
 20
189.1594243764192
 30
0.0
  0
ENDBLK
  5
783
330
777
100
AcDbEntity
  8
0
100
AcDbBlockEnd
  0
BLOCK
  5
785
330
784
100
AcDbEntity
  8
0
100
AcDbBlockBegin
  2
*D61
 70
     1
 10
0.0
 20
0.0
 30
0.0
  3
*D61
  1

  0
LINE
  5
786
330
784
100
AcDbEntity
  8
标注
370
    -2
100
AcDbLine
 10
84.298805906599
 20
197.2469440614585
 30
0.0
 11
84.298805906599
 21
186.6800250198774
 31
0.0
  0
LINE
  5
787
330
784
100
AcDbEntity
  8
标注
370
    -2
100
AcDbLine
 10
94.77124685148078
 20
197.2715503606711
 30
0.0
 11
94.77124685148078
 21
186.6800250198774
 31
0.0
  0
LINE
  5
788
330
784
100
AcDbEntity
  8
标注
370
    -2
100
AcDbLine
 10
84.94880590659901
 20
187.0000250198774
 30
0.0
 11
87.54752637903989
 21
187.0000250198774
 31
0.0
  0
LINE
  5
789
330
784
100
AcDbEntity
  8
标注
370
    -2
100
AcDbLine
 10
94.12124685148077
 20
187.0000250198774
 30
0.0
 11
91.52252637903989
 21
187.0000250198774
 31
0.0
  0
SOLID
  5
78A
330
784
100
AcDbEntity
  8
标注
100
AcDbTrace
 10
84.94880590659901
 20
187.1083583532108
 30
0.0
 11
84.94880590659901
 21
186.8916916865441
 31
0.0
 12
84.298805906599
 22
187.0000250198774
 32
0.0
 13
84.298805906599
 23
187.0000250198774
 33
0.0
  0
SOLID
  5
78B
330
784
100
AcDbEntity
  8
标注
100
AcDbTrace
 10
94.12124685148077
 20
187.1083583532108
 30
0.0
 11
94.12124685148077
 21
186.8916916865441
 31
0.0
 12
94.77124685148078
 22
187.0000250198774
 32
0.0
 13
94.77124685148078
 23
187.0000250198774
 33
0.0
  0
MTEXT
  5
78C
330
784
100
AcDbEntity
  8
标注
100
AcDbMText
 10
89.53502637903989
 20
187.0000250198774
 30
0.0
 40
0.65
 41
0.0
 71
     5
 72
     1
  1
\A1;10 1/2"
 73
     1
 44
1.0
  0
POINT
  5
78D
330
784
100
AcDbEntity
  8
Defpoints
 62
     0
100
AcDbPoint
 10
84.298805906599
 20
198.1269440614586
 30
0.0
  0
POINT
  5
78E
330
784
100
AcDbEntity
  8
Defpoints
 62
     0
100
AcDbPoint
 10
94.77124685148078
 20
198.1515503606711
 30
0.0
  0
POINT
  5
78F
330
784
100
AcDbEntity
  8
Defpoints
 62
     0
100
AcDbPoint
 10
94.77124685148078
 20
187.0000250198774
 30
0.0
  0
ENDBLK
  5
790
330
784
100
AcDbEntity
  8
0
100
AcDbBlockEnd
  0
BLOCK
  5
792
330
791
100
AcDbEntity
  8
0
100
AcDbBlockBegin
  2
*D62
 70
     1
 10
0.0
 20
0.0
 30
0.0
  3
*D62
  1

  0
LINE
  5
793
330
791
100
AcDbEntity
  8
标注
370
    -2
100
AcDbLine
 10
82.99171929242572
 20
193.2164322504349
 30
0.0
 11
82.99171929242572
 21
186.7117865246787
 31
0.0
  0
LINE
  5
794
330
791
100
AcDbEntity
  8
标注
370
    -2
100
AcDbLine
 10
65.27518385935478
 20
193.2164322504349
 30
0.0
 11
65.27518385935478
 21
186.7117865246787
 31
0.0
  0
LINE
  5
795
330
791
100
AcDbEntity
  8
标注
370
    -2
100
AcDbLine
 10
82.3417192924257
 20
187.0317865246787
 30
0.0
 11
76.28345157589025
 21
187.0317865246787
 31
0.0
  0
LINE
  5
796
330
791
100
AcDbEntity
  8
标注
370
    -2
100
AcDbLine
 10
65.92518385935479
 20
187.0317865246787
 30
0.0
 11
71.98345157589024
 21
187.0317865246787
 31
0.0
  0
SOLID
  5
797
330
791
100
AcDbEntity
  8
标注
100
AcDbTrace
 10
82.3417192924257
 20
187.140119858012
 30
0.0
 11
82.3417192924257
 21
186.9234531913454
 31
0.0
 12
82.99171929242572
 22
187.0317865246787
 32
0.0
 13
82.99171929242572
 23
187.0317865246787
 33
0.0
  0
SOLID
  5
798
330
791
100
AcDbEntity
  8
标注
100
AcDbTrace
 10
65.92518385935479
 20
187.140119858012
 30
0.0
 11
65.92518385935479
 21
186.9234531913454
 31
0.0
 12
65.27518385935478
 22
187.0317865246787
 32
0.0
 13
65.27518385935478
 23
187.0317865246787
 33
0.0
  0
MTEXT
  5
799
330
791
100
AcDbEntity
  8
标注
100
AcDbMText
 10
74.13345157589025
 20
187.0317865246787
 30
0.0
 40
0.65
 41
0.0
 71
     5
 72
     1
  1
\A1;17 3/4"
 73
     1
 44
1.0
  0
POINT
  5
79A
330
791
100
AcDbEntity
  8
Defpoints
 62
     0
100
AcDbPoint
 10
82.99171929242572
 20
194.0964322504349
 30
0.0
  0
POINT
  5
79B
330
791
100
AcDbEntity
  8
Defpoints
 62
     0
100
AcDbPoint
 10
65.27518385935478
 20
194.0964322504349
 30
0.0
  0
POINT
  5
79C
330
791
100
AcDbEntity
  8
Defpoints
 62
     0
100
AcDbPoint
 10
65.27518385935478
 20
187.0317865246787
 30
0.0
  0
ENDBLK
  5
79D
330
791
100
AcDbEntity
  8
0
100
AcDbBlockEnd
  0
BLOCK
  5
79F
330
79E
100
AcDbEntity
  8
0
100
AcDbBlockBegin
  2
*D63
 70
     1
 10
0.0
 20
0.0
 30
0.0
  3
*D63
  1

  0
LINE
  5
7A0
330
79E
100
AcDbEntity
  8
标注
370
    -2
100
AcDbLine
 10
64.25057756014223
 20
193.2164322504349
 30
0.0
 11
64.25057756014223
 21
184.6028322830472
 31
0.0
  0
LINE
  5
7A1
330
79E
100
AcDbEntity
  8
标注
370
    -2
100
AcDbLine
 10
95.74664055226833
 20
192.4290306756318
 30
0.0
 11
95.74664055226833
 21
184.6028322830472
 31
0.0
  0
LINE
  5
7A2
330
79E
100
AcDbEntity
  8
标注
370
    -2
100
AcDbLine
 10
64.90057756014223
 20
184.9228322830472
 30
0.0
 11
77.95694238953861
 21
184.9228322830472
 31
0.0
  0
LINE
  5
7A3
330
79E
100
AcDbEntity
  8
标注
370
    -2
100
AcDbLine
 10
95.09664055226833
 20
184.9228322830472
 30
0.0
 11
82.04027572287195
 21
184.9228322830472
 31
0.0
  0
SOLID
  5
7A4
330
79E
100
AcDbEntity
  8
标注
100
AcDbTrace
 10
64.90057756014223
 20
185.0311656163805
 30
0.0
 11
64.90057756014223
 21
184.8144989497139
 31
0.0
 12
64.25057756014223
 22
184.9228322830472
 32
0.0
 13
64.25057756014223
 23
184.9228322830472
 33
0.0
  0
SOLID
  5
7A5
330
79E
100
AcDbEntity
  8
标注
100
AcDbTrace
 10
95.09664055226833
 20
185.0311656163805
 30
0.0
 11
95.09664055226833
 21
184.8144989497139
 31
0.0
 12
95.74664055226833
 22
184.9228322830472
 32
0.0
 13
95.74664055226833
 23
184.9228322830472
 33
0.0
  0
MTEXT
  5
7A6
330
79E
100
AcDbEntity
  8
标注
100
AcDbMText
 10
79.99860905620528
 20
184.9228322830472
 30
0.0
 40
0.65
 41
0.0
 71
     5
 72
     1
  1
\A1;31 1/2"
 73
     1
 44
1.0
  0
POINT
  5
7A7
330
79E
100
AcDbEntity
  8
Defpoints
 62
     0
100
AcDbPoint
 10
64.25057756014223
 20
194.0964322504349
 30
0.0
  0
POINT
  5
7A8
330
79E
100
AcDbEntity
  8
Defpoints
 62
     0
100
AcDbPoint
 10
95.74664055226833
 20
193.3090306756318
 30
0.0
  0
POINT
  5
7A9
330
79E
100
AcDbEntity
  8
Defpoints
 62
     0
100
AcDbPoint
 10
95.74664055226833
 20
184.9228322830472
 30
0.0
  0
ENDBLK
  5
7AA
330
79E
100
AcDbEntity
  8
0
100
AcDbBlockEnd
  0
BLOCK
  5
7AC
330
7AB
100
AcDbEntity
  8
0
100
AcDbBlockBegin
  2
*D64
 70
     1
 10
0.0
 20
0.0
 30
0.0
  3
*D64
  1

  0
LINE
  5
7AD
330
7AB
100
AcDbEntity
  8
标注
370
    -2
100
AcDbLine
 10
73.25345157589038
 20
208.6633613842932
 30
0.0
 11
61.09064011717947
 21
208.6633613842933
 31
0.0
  0
LINE
  5
7AE
330
7AB
100
AcDbEntity
  8
标注
370
    -2
100
AcDbLine
 10
68.33219173337056
 20
190.1594243764192
 30
0.0
 11
61.09064011717947
 21
190.1594243764192
 31
0.0
  0
LINE
  5
7AF
330
7AB
100
AcDbEntity
  8
标注
370
    -2
100
AcDbLine
 10
61.41064011717947
 20
208.0133613842932
 30
0.0
 11
61.41064011717947
 21
201.4530595470229
 31
0.0
  0
LINE
  5
7B0
330
7AB
100
AcDbEntity
  8
标注
370
    -2
100
AcDbLine
 10
61.41064011717947
 20
190.8094243764192
 30
0.0
 11
61.41064011717947
 21
197.3697262136895
 31
0.0
  0
SOLID
  5
7B1
330
7AB
100
AcDbEntity
  8
标注
100
AcDbTrace
 10
61.30230678384614
 20
208.0133613842932
 30
0.0
 11
61.51897345051281
 21
208.0133613842932
 31
0.0
 12
61.41064011717947
 22
208.6633613842933
 32
0.0
 13
61.41064011717947
 23
208.6633613842933
 33
0.0
  0
SOLID
  5
7B2
330
7AB
100
AcDbEntity
  8
标注
100
AcDbTrace
 10
61.30230678384613
 20
190.8094243764192
 30
0.0
 11
61.5189734505128
 21
190.8094243764192
 31
0.0
 12
61.41064011717947
 22
190.1594243764192
 32
0.0
 13
61.41064011717947
 23
190.1594243764192
 33
0.0
  0
MTEXT
  5
7B3
330
7AB
100
AcDbEntity
  8
标注
100
AcDbMText
 10
61.41064011717944
 20
199.4113928803562
 30
0.0
 40
0.65
 41
0.0
 71
     5
 72
     1
  1
\A1;18 1/2"
 11
0.0000000000000001
 21
1.0
 31
0.0
 73
     1
 44
1.0
  0
POINT
  5
7B4
330
7AB
100
AcDbEntity
  8
Defpoints
 62
     0
100
AcDbPoint
 10
74.13345157589038
 20
208.6633613842932
 30
0.0
  0
POINT
  5
7B5
330
7AB
100
AcDbEntity
  8
Defpoints
 62
     0
100
AcDbPoint
 10
69.21219173337056
 20
190.1594243764192
 30
0.0
  0
POINT
  5
7B6
330
7AB
100
AcDbEntity
  8
Defpoints
 62
     0
100
AcDbPoint
 10
61.41064011717947
 20
190.1594243764192
 30
0.0
  0
ENDBLK
  5
7B7
330
7AB
100
AcDbEntity
  8
0
100
AcDbBlockEnd
  0
BLOCK
  5
7B9
330
7B8
100
AcDbEntity
  8
0
100
AcDbBlockBegin
  2
*D65
 70
     1
 10
0.0
 20
0.0
 30
0.0
  3
*D65
  1

  0
LINE
  5
7BA
330
7B8
100
AcDbEntity
  8
标注
370
    -2
100
AcDbLine
 10
73.2288452766777
 20
209.6633613842932
 30
0.0
 11
58.67789916953398
 21
209.6633613842932
 31
0.0
  0
LINE
  5
7BB
330
7B8
100
AcDbEntity
  8
标注
370
    -2
100
AcDbLine
 10
68.307585434158
 20
189.1594243764191
 30
0.0
 11
58.67789916953398
 21
189.1594243764191
 31
0.0
  0
LINE
  5
7BC
330
7B8
100
AcDbEntity
  8
标注
370
    -2
100
AcDbLine
 10
58.99789916953398
 20
209.0133613842932
 30
0.0
 11
58.99789916953398
 21
201.5072262136895
 31
0.0
  0
LINE
  5
7BD
330
7B8
100
AcDbEntity
  8
标注
370
    -2
100
AcDbLine
 10
58.99789916953398
 20
189.8094243764191
 30
0.0
 11
58.99789916953398
 21
197.3155595470228
 31
0.0
  0
SOLID
  5
7BE
330
7B8
100
AcDbEntity
  8
标注
100
AcDbTrace
 10
58.88956583620065
 20
209.0133613842932
 30
0.0
 11
59.10623250286732
 21
209.0133613842932
 31
0.0
 12
58.99789916953398
 22
209.6633613842932
 32
0.0
 13
58.99789916953398
 23
209.6633613842932
 33
0.0
  0
SOLID
  5
7BF
330
7B8
100
AcDbEntity
  8
标注
100
AcDbTrace
 10
58.88956583620064
 20
189.8094243764191
 30
0.0
 11
59.10623250286731
 21
189.8094243764191
 31
0.0
 12
58.99789916953398
 22
189.1594243764191
 32
0.0
 13
58.99789916953398
 23
189.1594243764191
 33
0.0
  0
MTEXT
  5
7C0
330
7B8
100
AcDbEntity
  8
标注
100
AcDbMText
 10
58.99789916953395
 20
199.4113928803562
 30
0.0
 40
0.65
 41
0.0
 71
     5
 72
     1
  1
\A1;20 1/2"
 11
0.0000000000000001
 21
1.0
 31
0.0
 73
     1
 44
1.0
  0
POINT
  5
7C1
330
7B8
100
AcDbEntity
  8
Defpoints
 62
     0
100
AcDbPoint
 10
74.1088452766777
 20
209.6633613842932
 30
0.0
  0
POINT
  5
7C2
330
7B8
100
AcDbEntity
  8
Defpoints
 62
     0
100
AcDbPoint
 10
69.18758543415799
 20
189.1594243764191
 30
0.0
  0
POINT
  5
7C3
330
7B8
100
AcDbEntity
  8
Defpoints
 62
     0
100
AcDbPoint
 10
58.99789916953398
 20
189.1594243764191
 30
0.0
  0
ENDBLK
  5
7C4
330
7B8
100
AcDbEntity
  8
0
100
AcDbBlockEnd
  0
BLOCK
  5
818
330
80D
100
AcDbEntity
  8
0
100
AcDbBlockBegin
  2
*D67
 70
     1
 10
0.0
 20
0.0
 30
0.0
  3
*D67
  1

  0
LINE
  5
80E
330
80D
100
AcDbEntity
  8
标注
370
    -2
100
AcDbLine
 10
73.18041875805795
 20
169.3799854564986
 30
0.0
 11
58.62947265091422
 21
169.3799854564986
 31
0.0
  0
LINE
  5
80F
330
80D
100
AcDbEntity
  8
标注
370
    -2
100
AcDbLine
 10
68.25915891553825
 20
148.8760484486245
 30
0.0
 11
58.62947265091422
 21
148.8760484486245
 31
0.0
  0
LINE
  5
810
330
80D
100
AcDbEntity
  8
标注
370
    -2
100
AcDbLine
 10
58.94947265091422
 20
168.7299854564986
 30
0.0
 11
58.94947265091422
 21
161.2238502858948
 31
0.0
  0
LINE
  5
811
330
80D
100
AcDbEntity
  8
标注
370
    -2
100
AcDbLine
 10
58.94947265091422
 20
149.5260484486245
 30
0.0
 11
58.94947265091422
 21
157.0321836192282
 31
0.0
  0
SOLID
  5
812
330
80D
100
AcDbEntity
  8
标注
100
AcDbTrace
 10
58.84113931758089
 20
168.7299854564986
 30
0.0
 11
59.05780598424756
 21
168.7299854564986
 31
0.0
 12
58.94947265091422
 22
169.3799854564986
 32
0.0
 13
58.94947265091422
 23
169.3799854564986
 33
0.0
  0
SOLID
  5
813
330
80D
100
AcDbEntity
  8
标注
100
AcDbTrace
 10
58.84113931758089
 20
149.5260484486245
 30
0.0
 11
59.05780598424756
 21
149.5260484486245
 31
0.0
 12
58.94947265091422
 22
148.8760484486245
 32
0.0
 13
58.94947265091422
 23
148.8760484486245
 33
0.0
  0
MTEXT
  5
814
330
80D
100
AcDbEntity
  8
标注
100
AcDbMText
 10
58.9494726509142
 20
159.1280169525615
 30
0.0
 40
0.65
 41
0.0
 71
     5
 72
     1
  1
\A1;20 1/2"
 11
0.0000000000000001
 21
1.0
 31
0.0
 73
     1
 44
1.0
  0
POINT
  5
815
330
80D
100
AcDbEntity
  8
Defpoints
 62
     0
100
AcDbPoint
 10
74.06041875805795
 20
169.3799854564986
 30
0.0
  0
POINT
  5
816
330
80D
100
AcDbEntity
  8
Defpoints
 62
     0
100
AcDbPoint
 10
69.13915891553824
 20
148.8760484486245
 30
0.0
  0
POINT
  5
817
330
80D
100
AcDbEntity
  8
Defpoints
 62
     0
100
AcDbPoint
 10
58.94947265091422
 20
148.8760484486245
 30
0.0
  0
ENDBLK
  5
819
330
80D
100
AcDbEntity
  8
0
100
AcDbBlockEnd
  0
BLOCK
  5
825
330
81A
100
AcDbEntity
  8
0
100
AcDbBlockBegin
  2
*D68
 70
     1
 10
0.0
 20
0.0
 30
0.0
  3
*D68
  1

  0
LINE
  5
81B
330
81A
100
AcDbEntity
  8
标注
370
    -2
100
AcDbLine
 10
73.20502505727063
 20
168.3799854564986
 30
0.0
 11
61.04221359855971
 21
168.3799854564986
 31
0.0
  0
LINE
  5
81C
330
81A
100
AcDbEntity
  8
标注
370
    -2
100
AcDbLine
 10
68.28376521475082
 20
149.8760484486245
 30
0.0
 11
61.04221359855971
 21
149.8760484486246
 31
0.0
  0
LINE
  5
81D
330
81A
100
AcDbEntity
  8
标注
370
    -2
100
AcDbLine
 10
61.36221359855971
 20
167.7299854564986
 30
0.0
 11
61.36221359855971
 21
161.1696836192282
 31
0.0
  0
LINE
  5
81E
330
81A
100
AcDbEntity
  8
标注
370
    -2
100
AcDbLine
 10
61.36221359855971
 20
150.5260484486246
 30
0.0
 11
61.36221359855971
 21
157.0863502858949
 31
0.0
  0
SOLID
  5
81F
330
81A
100
AcDbEntity
  8
标注
100
AcDbTrace
 10
61.25388026522638
 20
167.7299854564986
 30
0.0
 11
61.47054693189304
 21
167.7299854564986
 31
0.0
 12
61.36221359855971
 22
168.3799854564986
 32
0.0
 13
61.36221359855971
 23
168.3799854564986
 33
0.0
  0
SOLID
  5
820
330
81A
100
AcDbEntity
  8
标注
100
AcDbTrace
 10
61.25388026522638
 20
150.5260484486246
 30
0.0
 11
61.47054693189304
 21
150.5260484486246
 31
0.0
 12
61.36221359855971
 22
149.8760484486246
 32
0.0
 13
61.36221359855971
 23
149.8760484486246
 33
0.0
  0
MTEXT
  5
821
330
81A
100
AcDbEntity
  8
标注
100
AcDbMText
 10
61.36221359855968
 20
159.1280169525616
 30
0.0
 40
0.65
 41
0.0
 71
     5
 72
     1
  1
\A1;18 1/2"
 11
0.0000000000000001
 21
1.0
 31
0.0
 73
     1
 44
1.0
  0
POINT
  5
822
330
81A
100
AcDbEntity
  8
Defpoints
 62
     0
100
AcDbPoint
 10
74.08502505727063
 20
168.3799854564986
 30
0.0
  0
POINT
  5
823
330
81A
100
AcDbEntity
  8
Defpoints
 62
     0
100
AcDbPoint
 10
69.16376521475081
 20
149.8760484486245
 30
0.0
  0
POINT
  5
824
330
81A
100
AcDbEntity
  8
Defpoints
 62
     0
100
AcDbPoint
 10
61.36221359855971
 20
149.8760484486246
 30
0.0
  0
ENDBLK
  5
826
330
81A
100
AcDbEntity
  8
0
100
AcDbBlockEnd
  0
BLOCK
  5
832
330
827
100
AcDbEntity
  8
0
100
AcDbBlockBegin
  2
*D69
 70
     1
 10
0.0
 20
0.0
 30
0.0
  3
*D69
  1

  0
LINE
  5
828
330
827
100
AcDbEntity
  8
标注
370
    -2
100
AcDbLine
 10
64.20215104152248
 20
152.9330563226403
 30
0.0
 11
64.20215104152248
 21
144.3194563552526
 31
0.0
  0
LINE
  5
829
330
827
100
AcDbEntity
  8
标注
370
    -2
100
AcDbLine
 10
95.69821403364858
 20
152.1456547478372
 30
0.0
 11
95.69821403364858
 21
144.3194563552526
 31
0.0
  0
LINE
  5
82A
330
827
100
AcDbEntity
  8
标注
370
    -2
100
AcDbLine
 10
64.85215104152249
 20
144.6394563552526
 30
0.0
 11
77.90851587091886
 21
144.6394563552526
 31
0.0
  0
LINE
  5
82B
330
827
100
AcDbEntity
  8
标注
370
    -2
100
AcDbLine
 10
95.04821403364857
 20
144.6394563552526
 30
0.0
 11
81.99184920425221
 21
144.6394563552526
 31
0.0
  0
SOLID
  5
82C
330
827
100
AcDbEntity
  8
标注
100
AcDbTrace
 10
64.85215104152249
 20
144.7477896885859
 30
0.0
 11
64.85215104152249
 21
144.5311230219193
 31
0.0
 12
64.20215104152248
 22
144.6394563552526
 32
0.0
 13
64.20215104152248
 23
144.6394563552526
 33
0.0
  0
SOLID
  5
82D
330
827
100
AcDbEntity
  8
标注
100
AcDbTrace
 10
95.04821403364857
 20
144.7477896885859
 30
0.0
 11
95.04821403364857
 21
144.5311230219193
 31
0.0
 12
95.69821403364858
 22
144.6394563552526
 32
0.0
 13
95.69821403364858
 23
144.6394563552526
 33
0.0
  0
MTEXT
  5
82E
330
827
100
AcDbEntity
  8
标注
100
AcDbMText
 10
79.95018253758553
 20
144.6394563552526
 30
0.0
 40
0.65
 41
0.0
 71
     5
 72
     1
  1
\A1;31 1/2"
 73
     1
 44
1.0
  0
POINT
  5
82F
330
827
100
AcDbEntity
  8
Defpoints
 62
     0
100
AcDbPoint
 10
64.20215104152248
 20
153.8130563226403
 30
0.0
  0
POINT
  5
830
330
827
100
AcDbEntity
  8
Defpoints
 62
     0
100
AcDbPoint
 10
95.69821403364858
 20
153.0256547478372
 30
0.0
  0
POINT
  5
831
330
827
100
AcDbEntity
  8
Defpoints
 62
     0
100
AcDbPoint
 10
95.69821403364858
 20
144.6394563552526
 30
0.0
  0
ENDBLK
  5
833
330
827
100
AcDbEntity
  8
0
100
AcDbBlockEnd
  0
BLOCK
  5
83F
330
834
100
AcDbEntity
  8
0
100
AcDbBlockBegin
  2
*D70
 70
     1
 10
0.0
 20
0.0
 30
0.0
  3
*D70
  1

  0
LINE
  5
868
330
834
100
AcDbEntity
  8
标注
370
    -2
100
AcDbLine
 10
82.94329277380596
 20
152.9330563226403
 30
0.0
 11
82.94329277380596
 21
146.4284105968841
 31
0.0
  0
LINE
  5
869
330
834
100
AcDbEntity
  8
标注
370
    -2
100
AcDbLine
 10
65.22675734073503
 20
152.9330563226403
 30
0.0
 11
65.22675734073503
 21
146.4284105968841
 31
0.0
  0
LINE
  5
86A
330
834
100
AcDbEntity
  8
标注
370
    -2
100
AcDbLine
 10
82.29329277380596
 20
146.7484105968841
 30
0.0
 11
76.2350250572705
 21
146.7484105968841
 31
0.0
  0
LINE
  5
86B
330
834
100
AcDbEntity
  8
标注
370
    -2
100
AcDbLine
 10
65.87675734073504
 20
146.7484105968841
 30
0.0
 11
71.9350250572705
 21
146.7484105968841
 31
0.0
  0
SOLID
  5
86C
330
834
100
AcDbEntity
  8
标注
100
AcDbTrace
 10
82.29329277380596
 20
146.8567439302174
 30
0.0
 11
82.29329277380596
 21
146.6400772635508
 31
0.0
 12
82.94329277380596
 22
146.7484105968841
 32
0.0
 13
82.94329277380596
 23
146.7484105968841
 33
0.0
  0
SOLID
  5
86D
330
834
100
AcDbEntity
  8
标注
100
AcDbTrace
 10
65.87675734073504
 20
146.8567439302174
 30
0.0
 11
65.87675734073504
 21
146.6400772635508
 31
0.0
 12
65.22675734073503
 22
146.7484105968841
 32
0.0
 13
65.22675734073503
 23
146.7484105968841
 33
0.0
  0
MTEXT
  5
86E
330
834
100
AcDbEntity
  8
标注
100
AcDbMText
 10
74.08502505727049
 20
146.7484105968841
 30
0.0
 40
0.65
 41
0.0
 71
     5
 72
     1
  1
\A1;17 3/4"
 73
     1
 44
1.0
  0
POINT
  5
86F
330
834
100
AcDbEntity
  8
Defpoints
 62
     0
100
AcDbPoint
 10
82.94329277380596
 20
153.8130563226403
 30
0.0
  0
POINT
  5
870
330
834
100
AcDbEntity
  8
Defpoints
 62
     0
100
AcDbPoint
 10
65.22675734073503
 20
153.8130563226403
 30
0.0
  0
POINT
  5
871
330
834
100
AcDbEntity
  8
Defpoints
 62
     0
100
AcDbPoint
 10
65.22675734073503
 20
146.7484105968841
 30
0.0
  0
ENDBLK
  5
840
330
834
100
AcDbEntity
  8
0
100
AcDbBlockEnd
  0
BLOCK
  5
84C
330
841
100
AcDbEntity
  8
0
100
AcDbBlockBegin
  2
*D71
 70
     1
 10
0.0
 20
0.0
 30
0.0
  3
*D71
  1

  0
LINE
  5
842
330
841
100
AcDbEntity
  8
标注
370
    -2
100
AcDbLine
 10
84.25037938797926
 20
156.9635681336639
 30
0.0
 11
84.25037938797926
 21
146.3966490920828
 31
0.0
  0
LINE
  5
843
330
841
100
AcDbEntity
  8
标注
370
    -2
100
AcDbLine
 10
94.72282033286104
 20
156.9881744328765
 30
0.0
 11
94.72282033286104
 21
146.3966490920828
 31
0.0
  0
LINE
  5
844
330
841
100
AcDbEntity
  8
标注
370
    -2
100
AcDbLine
 10
84.90037938797925
 20
146.7166490920828
 30
0.0
 11
87.49909986042014
 21
146.7166490920828
 31
0.0
  0
LINE
  5
845
330
841
100
AcDbEntity
  8
标注
370
    -2
100
AcDbLine
 10
94.07282033286103
 20
146.7166490920828
 30
0.0
 11
91.47409986042013
 21
146.7166490920828
 31
0.0
  0
SOLID
  5
846
330
841
100
AcDbEntity
  8
标注
100
AcDbTrace
 10
84.90037938797925
 20
146.8249824254161
 30
0.0
 11
84.90037938797925
 21
146.6083157587495
 31
0.0
 12
84.25037938797926
 22
146.7166490920828
 32
0.0
 13
84.25037938797926
 23
146.7166490920828
 33
0.0
  0
SOLID
  5
847
330
841
100
AcDbEntity
  8
标注
100
AcDbTrace
 10
94.07282033286103
 20
146.8249824254161
 30
0.0
 11
94.07282033286103
 21
146.6083157587495
 31
0.0
 12
94.72282033286104
 22
146.7166490920828
 32
0.0
 13
94.72282033286104
 23
146.7166490920828
 33
0.0
  0
MTEXT
  5
848
330
841
100
AcDbEntity
  8
标注
100
AcDbMText
 10
89.48659986042015
 20
146.7166490920828
 30
0.0
 40
0.65
 41
0.0
 71
     5
 72
     1
  1
\A1;10 1/2"
 73
     1
 44
1.0
  0
POINT
  5
849
330
841
100
AcDbEntity
  8
Defpoints
 62
     0
100
AcDbPoint
 10
84.25037938797926
 20
157.8435681336639
 30
0.0
  0
POINT
  5
84A
330
841
100
AcDbEntity
  8
Defpoints
 62
     0
100
AcDbPoint
 10
94.72282033286104
 20
157.8681744328765
 30
0.0
  0
POINT
  5
84B
330
841
100
AcDbEntity
  8
Defpoints
 62
     0
100
AcDbPoint
 10
94.72282033286104
 20
146.7166490920828
 30
0.0
  0
ENDBLK
  5
84D
330
841
100
AcDbEntity
  8
0
100
AcDbBlockEnd
  0
BLOCK
  5
859
330
84E
100
AcDbEntity
  8
0
100
AcDbBlockBegin
  2
*D72
 70
     1
 10
0.0
 20
0.0
 30
0.0
  3
*D72
  1

  0
LINE
  5
84F
330
84E
100
AcDbEntity
  8
标注
370
    -2
100
AcDbLine
 10
92.4286077344359
 20
166.8603004171285
 30
0.0
 11
101.3586149839357
 21
166.8603004171285
 31
0.0
  0
LINE
  5
850
330
84E
100
AcDbEntity
  8
标注
370
    -2
100
AcDbLine
 10
92.4286077344359
 20
148.8760484486245
 30
0.0
 11
101.3586149839357
 21
148.8760484486245
 31
0.0
  0
LINE
  5
851
330
84E
100
AcDbEntity
  8
标注
370
    -2
100
AcDbLine
 10
101.0386149839358
 20
166.2103004171285
 30
0.0
 11
101.0386149839357
 21
158.7181744328765
 31
0.0
  0
LINE
  5
852
330
84E
100
AcDbEntity
  8
标注
370
    -2
100
AcDbLine
 10
101.0386149839357
 20
149.5260484486245
 30
0.0
 11
101.0386149839357
 21
157.0181744328765
 31
0.0
  0
SOLID
  5
853
330
84E
100
AcDbEntity
  8
标注
100
AcDbTrace
 10
100.9302816506024
 20
166.2103004171285
 30
0.0
 11
101.1469483172691
 21
166.2103004171285
 31
0.0
 12
101.0386149839358
 22
166.8603004171285
 32
0.0
 13
101.0386149839358
 23
166.8603004171285
 33
0.0
  0
SOLID
  5
854
330
84E
100
AcDbEntity
  8
标注
100
AcDbTrace
 10
100.9302816506024
 20
149.5260484486245
 30
0.0
 11
101.1469483172691
 21
149.5260484486245
 31
0.0
 12
101.0386149839357
 22
148.8760484486245
 32
0.0
 13
101.0386149839357
 23
148.8760484486245
 33
0.0
  0
MTEXT
  5
855
330
84E
100
AcDbEntity
  8
标注
100
AcDbMText
 10
101.0386149839357
 20
157.8681744328766
 30
0.0
 40
0.65
 41
0.0
 71
     5
 72
     1
  1
\A1;18"
 11
0.0000000000000001
 21
1.0
 31
0.0
 73
     1
 44
1.0
  0
POINT
  5
856
330
84E
100
AcDbEntity
  8
Defpoints
 62
     0
100
AcDbPoint
 10
91.54860773443591
 20
166.8603004171285
 30
0.0
  0
POINT
  5
857
330
84E
100
AcDbEntity
  8
Defpoints
 62
     0
100
AcDbPoint
 10
91.54860773443591
 20
148.8760484486245
 30
0.0
  0
POINT
  5
858
330
84E
100
AcDbEntity
  8
Defpoints
 62
     0
100
AcDbPoint
 10
101.0386149839357
 20
148.8760484486245
 30
0.0
  0
ENDBLK
  5
85A
330
84E
100
AcDbEntity
  8
0
100
AcDbBlockEnd
  0
BLOCK
  5
866
330
85B
100
AcDbEntity
  8
0
100
AcDbBlockBegin
  2
*D73
 70
     1
 10
0.0
 20
0.0
 30
0.0
  3
*D73
  1

  0
LINE
  5
872
330
85B
100
AcDbEntity
  8
标注
370
    -2
100
AcDbLine
 10
90.36659986042016
 20
165.8603004171285
 30
0.0
 11
98.75427188970967
 21
165.8603004171285
 31
0.0
  0
LINE
  5
873
330
85B
100
AcDbEntity
  8
标注
370
    -2
100
AcDbLine
 10
90.36659986042003
 20
149.8760484486245
 30
0.0
 11
98.75427188970967
 21
149.8760484486245
 31
0.0
  0
LINE
  5
874
330
85B
100
AcDbEntity
  8
标注
370
    -2
100
AcDbLine
 10
98.43427188970968
 20
165.2103004171284
 30
0.0
 11
98.43427188970967
 21
158.7181744328765
 31
0.0
  0
LINE
  5
875
330
85B
100
AcDbEntity
  8
标注
370
    -2
100
AcDbLine
 10
98.43427188970967
 20
150.5260484486246
 30
0.0
 11
98.43427188970967
 21
157.0181744328765
 31
0.0
  0
SOLID
  5
876
330
85B
100
AcDbEntity
  8
标注
100
AcDbTrace
 10
98.32593855637634
 20
165.2103004171284
 30
0.0
 11
98.54260522304301
 21
165.2103004171284
 31
0.0
 12
98.43427188970968
 22
165.8603004171285
 32
0.0
 13
98.43427188970968
 23
165.8603004171285
 33
0.0
  0
SOLID
  5
877
330
85B
100
AcDbEntity
  8
标注
100
AcDbTrace
 10
98.32593855637632
 20
150.5260484486246
 30
0.0
 11
98.54260522304301
 21
150.5260484486246
 31
0.0
 12
98.43427188970967
 22
149.8760484486245
 32
0.0
 13
98.43427188970967
 23
149.8760484486245
 33
0.0
  0
MTEXT
  5
878
330
85B
100
AcDbEntity
  8
标注
100
AcDbMText
 10
98.43427188970965
 20
157.8681744328765
 30
0.0
 40
0.65
 41
0.0
 71
     5
 72
     1
  1
\A1;16"
 11
0.0000000000000001
 21
1.0
 31
0.0
 73
     1
 44
1.0
  0
POINT
  5
879
330
85B
100
AcDbEntity
  8
Defpoints
 62
     0
100
AcDbPoint
 10
89.48659986042015
 20
165.8603004171285
 30
0.0
  0
POINT
  5
87A
330
85B
100
AcDbEntity
  8
Defpoints
 62
     0
100
AcDbPoint
 10
89.48659986042004
 20
149.8760484486245
 30
0.0
  0
POINT
  5
87B
330
85B
100
AcDbEntity
  8
Defpoints
 62
     0
100
AcDbPoint
 10
98.43427188970967
 20
149.8760484486245
 30
0.0
  0
ENDBLK
  5
867
330
85B
100
AcDbEntity
  8
0
100
AcDbBlockEnd
  0
BLOCK
  5
928
330
922
100
AcDbEntity
  8
0
100
AcDbBlockBegin
  2
*D77
 70
     1
 10
0.0
 20
0.0
 30
0.0
  3
*D77
  1

  0
LINE
  5
92B
330
922
100
AcDbEntity
  8
标注
370
    -2
100
AcDbLine
 10
68.19295567163314
 20
205.7749621877521
 30
0.0
 11
67.75329913218373
 21
206.2537127776414
 31
0.0
  0
MTEXT
  5
92C
330
922
100
AcDbEntity
  8
标注
100
AcDbMText
 10
69.64720422519665
 20
204.191402544272
 30
0.0
 40
0.65
 41
0.0
 71
     5
 72
     1
  1
\A1;R6 1/4"
 11
0.6763946760760279
 21
-0.7365393690604769
 31
0.0
 73
     1
 44
1.0
  0
SOLID
  5
92D
330
922
100
AcDbEntity
  8
标注
100
AcDbTrace
 10
67.83309089716526
 20
206.3269888675496
 30
0.0
 11
67.67350736720219
 21
206.1804366877332
 31
0.0
 12
67.3136425927343
 22
206.7324633675307
 32
0.0
 13
67.3136425927343
 23
206.7324633675307
 33
0.0
  0
POINT
  5
92E
330
922
100
AcDbEntity
  8
Defpoints
 62
     0
100
AcDbPoint
 10
67.3136425927343
 20
206.7324633675307
 30
0.0
  0
POINT
  5
92F
330
922
100
AcDbEntity
  8
Defpoints
 62
     0
100
AcDbPoint
 10
71.57439645778008
 20
202.0928452947089
 30
0.0
  0
ENDBLK
  5
929
330
922
100
AcDbEntity
  8
0
100
AcDbBlockEnd
  0
BLOCK
  5
938
330
932
100
AcDbEntity
  8
0
100
AcDbBlockBegin
  2
*D78
 70
     1
 10
0.0
 20
0.0
 30
0.0
  3
*D78
  1

  0
LINE
  5
93B
330
932
100
AcDbEntity
  8
标注
370
    -2
100
AcDbLine
 10
77.74072869044449
 20
206.9809284824648
 30
0.0
 11
77.87701901302511
 21
207.6164793836292
 31
0.0
  0
MTEXT
  5
93C
330
932
100
AcDbEntity
  8
标注
100
AcDbMText
 10
77.24449213130466
 20
204.6668713551484
 30
0.0
 40
0.65
 41
0.0
 71
     5
 72
     1
  1
\A1;R18 1/2"
 11
0.2096774193548422
 21
0.9777706171759785
 31
0.0
 73
     1
 44
1.0
  0
SOLID
  5
93D
330
932
100
AcDbEntity
  8
标注
100
AcDbTrace
 10
77.77109386283105
 20
207.6391944373926
 30
0.0
 11
77.98294416321919
 21
207.5937643298658
 31
0.0
 12
78.01330933560577
 22
208.2520302847936
 32
0.0
 13
78.01330933560577
 23
208.2520302847936
 33
0.0
  0
POINT
  5
93E
330
932
100
AcDbEntity
  8
Defpoints
 62
     0
100
AcDbPoint
 10
78.01330933560577
 20
208.2520302847936
 30
0.0
  0
POINT
  5
93F
330
932
100
AcDbEntity
  8
Defpoints
 62
     0
100
AcDbPoint
 10
74.13345157589013
 20
190.159424376419
 30
0.0
  0
ENDBLK
  5
939
330
932
100
AcDbEntity
  8
0
100
AcDbBlockEnd
  0
BLOCK
  5
948
330
942
100
AcDbEntity
  8
0
100
AcDbBlockBegin
  2
*D79
 70
     1
 10
0.0
 20
0.0
 30
0.0
  3
*D79
  1

  0
LINE
  5
94B
330
942
100
AcDbEntity
  8
标注
370
    -2
100
AcDbLine
 10
67.39864779931915
 20
192.1820475119651
 30
0.0
 11
66.95162465283975
 21
191.7101679653521
 31
0.0
  0
MTEXT
  5
94C
330
942
100
AcDbEntity
  8
标注
100
AcDbMText
 10
68.951766680036
 20
193.8215264495563
 30
0.0
 40
0.65
 41
0.0
 71
     5
 72
     1
  1
\A1;R3 7/8"
 11
0.6877279176606013
 21
0.725968533250728
 31
0.0
 73
     1
 44
1.0
  0
SOLID
  5
94D
330
942
100
AcDbEntity
  8
标注
100
AcDbTrace
 10
66.87297806173759
 20
191.7846718230986
 30
0.0
 11
67.03027124394191
 21
191.6356641076055
 31
0.0
 12
66.50460150636035
 22
191.2382884187391
 32
0.0
 13
66.50460150636035
 23
191.2382884187391
 33
0.0
  0
POINT
  5
94E
330
942
100
AcDbEntity
  8
Defpoints
 62
     0
100
AcDbPoint
 10
66.50460150636035
 20
191.2382884187391
 30
0.0
  0
POINT
  5
94F
330
942
100
AcDbEntity
  8
Defpoints
 62
     0
100
AcDbPoint
 10
69.21219173337064
 20
194.0964322504349
 30
0.0
  0
ENDBLK
  5
949
330
942
100
AcDbEntity
  8
0
100
AcDbBlockEnd
  0
BLOCK
  5
958
330
952
100
AcDbEntity
  8
0
100
AcDbBlockBegin
  2
*D80
 70
     1
 10
0.0
 20
0.0
 30
0.0
  3
*D80
  1

  0
LINE
  5
95B
330
952
100
AcDbEntity
  8
标注
370
    -2
100
AcDbLine
 10
80.76732438351939
 20
204.9890475323705
 30
0.0
 11
81.29713411776066
 21
205.3656131249347
 31
0.0
  0
MTEXT
  5
95C
330
952
100
AcDbEntity
  8
标注
100
AcDbMText
 10
79.01487680102897
 20
203.7434844185045
 30
0.0
 40
0.65
 41
0.0
 71
     5
 72
     1
  1
\A1;R6 1/4"
 11
0.8150918988327415
 21
0.5793316808679087
 31
0.0
 73
     1
 44
1.0
  0
SOLID
  5
95D
330
952
100
AcDbEntity
  8
标注
100
AcDbTrace
 10
81.23437318566663
 20
205.4539147473082
 30
0.0
 11
81.35989504985468
 21
205.2773115025611
 31
0.0
 12
81.82694385200193
 22
205.7421787174988
 32
0.0
 13
81.82694385200193
 23
205.7421787174988
 33
0.0
  0
POINT
  5
95E
330
952
100
AcDbEntity
  8
Defpoints
 62
     0
100
AcDbPoint
 10
81.82694385200193
 20
205.7421787174988
 30
0.0
  0
POINT
  5
95F
330
952
100
AcDbEntity
  8
Defpoints
 62
     0
100
AcDbPoint
 10
76.69250669400021
 20
202.0928452947087
 30
0.0
  0
ENDBLK
  5
959
330
952
100
AcDbEntity
  8
0
100
AcDbBlockEnd
  0
BLOCK
  5
968
330
962
100
AcDbEntity
  8
0
100
AcDbBlockBegin
  2
*D81
 70
     1
 10
0.0
 20
0.0
 30
0.0
  3
*D81
  1

  0
LINE
  5
96B
330
962
100
AcDbEntity
  8
标注
370
    -2
100
AcDbLine
 10
86.28904113290403
 20
192.0552004364042
 30
0.0
 11
85.83099437774407
 21
191.5940137387563
 31
0.0
  0
MTEXT
  5
96C
330
962
100
AcDbEntity
  8
标注
100
AcDbMText
 10
87.80411886151004
 20
193.5806641286245
 30
0.0
 40
0.65
 41
0.0
 71
     5
 72
     1
  1
\A1;R3 1/8"
 11
0.7046873156306973
 21
0.7095179963814888
 31
0.0
 73
     1
 44
1.0
  0
SOLID
  5
96D
330
962
100
AcDbEntity
  8
标注
100
AcDbTrace
 10
85.75412992813609
 20
191.6703548646163
 30
0.0
 11
85.90785882735207
 21
191.5176726128963
 31
0.0
 12
85.37294762258412
 22
191.1328270411083
 32
0.0
 13
85.37294762258412
 23
191.1328270411083
 33
0.0
  0
POINT
  5
96E
330
962
100
AcDbEntity
  8
Defpoints
 62
     0
100
AcDbPoint
 10
85.37294762258412
 20
191.1328270411083
 30
0.0
  0
POINT
  5
96F
330
962
100
AcDbEntity
  8
Defpoints
 62
     0
100
AcDbPoint
 10
87.59243523086974
 20
193.3675293919161
 30
0.0
  0
ENDBLK
  5
969
330
962
100
AcDbEntity
  8
0
100
AcDbBlockEnd
  0
ENDSEC
  0
SECTION
  2
ENTITIES
  0
REGION
  5
4AA
102
{ACAD_REACTORS
330
4E1
330
4E7
330
930
330
940
330
950
330
960
102
}
330
21
100
AcDbEntity
  8
0
100
AcDbModelerGeometry
 70
     1
  1
mogoo kh m o          
  1
ni ^ *+0;:,4 ^ *+0\^ [ nh ^ LR iqoqmqhoml QK mk K7* P<+ mo njemfeog monn 
  1
n fqfffffffffffffffj:rooh n:rono 
  1
>,27:>;:- {rn rn _nm mogqoqmqhoml |
  1
=0;& {rn rn {rn {m {rn {rn |
  1
3*2/ {rn rn {rn {rn {l {n |
  1
,7:33 {rn rn {rn {rn {rn {k {rn {m |
  1
9><: {rn rn {rn {rn {j {l {rn {i 90-(>-; ;0*=3: 0*+ |
  1
300/ {rn rn {rn {rn {h {k |
  1
/3>1:r,*-9><: {rn rn {rn hkqnllkjnjhjgfomil nfgqfkkmlfominmkig o o o n oqolflhoohghkonjhkg o o 90-(>-;@) V V V V |
  1
<0:;8: {rn rn {rn {g {f {rn {no 90-(>-; {j {rn |
  1
<0:;8: {rn rn {rn {nn {h {rn {nm -:):-,:; {j {rn |
  1
<0:;8: {rn rn {rn {h {nl {rn {nk -:):-,:; {j {rn |
  1
:;8: {rn rn {rn {nj rnqjhohfilmihfkgfii {ni o {h {nh 90-(>-; _h *1410(1 |
  1
<0:;8: {rn rn {rn {ng {g {rn {nf 90-(>-; {j {rn |
  1
:;8: {rn rn {rn {mo o {ni molqnoggfnlmkjjlin {g {mn 90-(>-; _h *1410(1 |
  1
<0:;8: {rn rn {rn {f {mm {rn {ml 90-(>-; {j {rn |
  1
:;8: {rn rn {rn {nj o {mk mjoqoooooooooooonn {f {mj 90-(>-; _h *1410(1 |
  1
):-+:' {rn rn {rn {no {mi |
  1
):-+:' {rn rn {rn {no {mh |
  1
:336/,:r<*-): {rn rn {rn hfqojkhnnkngkoffii nfkqofiklmmjoklkfi o o o n lqflhoohghkonjhkgn o o n V V |
  1
<0:;8: {rn rn {rn {mg {nn {rn {mf 90-(>-; {j {rn |
  1
:;8: {rn rn {rn {mo o {lo nqljfjjnmflnjljflk {nn {ln 90-(>-; _h *1410(1 |
  1
):-+:' {rn rn {rn {nm {lm |
  1
,+->687+r<*-): {rn rn {rn gmqffnhnfmfmkmjhmg momqofmgkjmfkhogh o o roqolflhoohghkonjhkg o V V |
  1
<0:;8: {rn rn {rn {nl {mg {rn {ll -:):-,:; {j {rn |
  1
:;8: {rn rn {rn {lk rlqnknjfmijljgfhfln {mk rnqjhohfilmihfkgfii {nl {lj 90-(>-; _h *1410(1 |
  1
):-+:' {rn rn {rn {ml {li |
  1
,+->687+r<*-): {rn rn {rn hfqojkhnnkngkoffii nfoqnjfkmklhiknfm o roqolflhoohghkonjhkg nqhfolklfonnmhgnog:ronh o V V |
  1
/061+ {rn rn {rn hfqojkhnnkngkoffii nfoqnjfkmklhiknfm o |
  1
/061+ {rn rn {rn gmqffnhnfmfmkmjhmg nfkqofiklmmjoklkfi o |
  1
<0:;8: {rn rn {rn {mm {ng {rn {lh 90-(>-; {j {rn |
  1
:;8: {rn rn {rn {lo nqljfjjnmflnjljfmf {lg nqhgmoknlioklimoof {ng {lf 90-(>-; _h *1410(1 |
  1
):-+:' {rn rn {rn {nf {ko |
  1
:336/,:r<*-): {rn rn {rn hiqifmjoiifkoookgj momqofmgkjmfkhogh o o o n iqmffmnmjfgkmjnfil o o n V V |
  1
/061+ {rn rn {rn gmqffnhnfmfmkmjhmg momqofmgkjmfkhogh o |
  1
:;8: {rn rn {rn {lk o {kn molqnoggfnlmkjjllg {mm {km 90-(>-; _h *1410(1 |
  1
):-+:' {rn rn {rn {ll {kl |
  1
:336/,:r<*-): {rn rn {rn ifqmnmnfnhlllhoji nfkqofiklmmjoklkfi o o o n lqflhoohghkonjhkgn o o n V V |
  1
/061+ {rn rn {rn ifqmnmnfnhlllhoji nfoqnjfkmklhiknfm o |
  1
:;8: {rn rn {rn {lg nqhgmoknlioklimoof {kn lqnknjfmijljgfhfln {mg {kk 90-(>-; _h *1410(1 |
  1
):-+:' {rn rn {rn {mf {kj |
  1
:336/,:r<*-): {rn rn {rn hkqnllkjnjhjgfomil nfoqnjfkmklhiknfm o o o n ngqjolflhoohghkonj o o n V V |
  1
/061+ {rn rn {rn hgqonlloflljiojhjk mogqmjmolomgkhfljf o |
  1
):-+:' {rn rn {rn {lh {ki |
  1
,+->687+r<*-): {rn rn {rn ijqmhjnglgjfljkhfh nfkqofiklmmjoklkfi o nqnonglhkhllfklikj:ronh oqolflhoohghkonjhkg o V V |
  1
/061+ {rn rn {rn ijqmhjnglgjfljkhfh nfkqofiklmmjoklkfi o |
  1
:336/,:r<*-): {rn rn {rn hnqjhklfikjhhgook momqofmgkjmfkhogh o o o n iqmffmnmjfgkmjnfil o o n V V |
  1
/061+ {rn rn {rn hoqmjljflgninhkhhn mogqmjmolomgkhfljf o |
  1
/061+ {rn rn {rn ijqmhjnglgjfljkhfh momqofmgkjmfkhogh o |
  0
REGION
  5
4AB
102
{ACAD_REACTORS
330
4D8
330
4DE
330
970
102
}
330
21
100
AcDbEntity
  8
0
100
AcDbModelerGeometry
 70
     1
  1
mogoo kh m o          
  1
ni ^ *+0;:,4 ^ *+0\^ [ nh ^ LR iqoqmqhoml QK mk K7* P<+ mo njemfeog monn 
  1
n fqfffffffffffffffj:rooh n:rono 
  1
>,27:>;:- {rn rn _nm mogqoqmqhoml |
  1
=0;& {rn rn {rn {m {rn {rn |
  1
3*2/ {rn rn {rn {rn {l {n |
  1
,7:33 {rn rn {rn {rn {rn {k {rn {m |
  1
9><: {rn rn {rn {rn {j {l {rn {i 90-(>-; ;0*=3: 0*+ |
  1
300/ {rn rn {rn {rn {h {k |
  1
/3>1:r,*-9><: {rn rn {rn gfqjljomilhfolfgfn nfgqnjnjjolioihnnh o o o n rhqmlnfmhmgiljmimnm:rong roqolflhoohghkonjhkg o 90-(>-;@) V V V V |
  1
<0:;8: {rn rn {rn {g {f {rn {no 90-(>-; {j {rn |
  1
<0:;8: {rn rn {rn {nn {h {rn {nm 90-(>-; {j {rn |
  1
<0:;8: {rn rn {rn {h {nl {rn {nk 90-(>-; {j {rn |
  1
:;8: {rn rn {rn {nj rnqjnoiokkhjhjooing {ni roqoiomoflnignklnioij {h {nh 90-(>-; _h *1410(1 |
  1
<0:;8: {rn rn {rn {ng {g {rn {nf 90-(>-; {j {rn |
  1
:;8: {rn rn {rn {ni roqoiomoflnignklnlmjj {mo oqoiomoflnignklnmhjj {g {mn 90-(>-; _h *1410(1 |
  1
<0:;8: {rn rn {rn {f {mm {rn {ml 90-(>-; {j {rn |
  1
:;8: {rn rn {rn {mk rnqilofggnhhglfhlgm {nj rnqjnoiokkhjhjoojjk {f {mj 90-(>-; _h *1410(1 |
  1
):-+:' {rn rn {rn {no {mi |
  1
):-+:' {rn rn {rn {no {mh |
  1
:336/,:r<*-): {rn rn {rn ghqjfmkljmlogifhfi nflqlihjmflfnfninj o o o n rjqhgjjkngmfogmofhm:roni rlqnkfioimffmnmjfgm o n V V |
  1
<0:;8: {rn rn {rn {mg {nn {rn {mf 90-(>-; {j {rn |
  1
:;8: {rn rn {rn {mo oqoiomoflnignklnolgf {lo nqjnoiokkhjhjoojlm {nn {ln 90-(>-; _h *1410(1 |
  1
):-+:' {rn rn {rn {nm {lm |
  1
:336/,:r<*-): {rn rn {rn gfqjljomilhfolfgfn mmjqjfmkfjmkmjiofh o o o n riqjoghlkjjhhnhljfj:ronj rljqkllohogiinknhll o n V V |
  1
<0:;8: {rn rn {rn {nl {mg {rn {ll 90-(>-; {j {rn |
  1
:;8: {rn rn {rn {lk rlqognlglllihhjkgom {mk rnqilofggnhhglfhlkk {nl {lj 90-(>-; _h *1410(1 |
  1
):-+:' {rn rn {rn {ml {li |
  1
:336/,:r<*-): {rn rn {rn niiqfhjfhnmiofmfih nfgqnjnjjolioihnnk o o o n rnqjnghokhlonlkojoi:ronk rgmqihhnijljkllohnn o n V V |
  1
/061+ {rn rn {rn gkqkkgjlmgnlglhgon nflqnhgoilmnkfljg o |
  1
/061+ {rn rn {rn ghqkomfnknklmkllhf nfoqmmlilomgkjlim o |
  1
<0:;8: {rn rn {rn {mm {ng {rn {lh 90-(>-; {j {rn |
  1
:;8: {rn rn {rn {lo nqjnoiokkhjhjoojkh {lg nqilofggnhhglfhlhj {ng {lf 90-(>-; _h *1410(1 |
  1
):-+:' {rn rn {rn {nf {ko |
  1
:336/,:r<*-): {rn rn {rn fnqkhhinhjmhmoffgi nflqlihjmflfnfninj o o o n rjqhgjjkngmfogmofhm:roni rlqnkfioimffmnmjfgm o n V V |
  1
/061+ {rn rn {rn fnqiihnlginkglimf nfoqmmlilomgkjlim o |
  1
:;8: {rn rn {rn {kn lqognlglllihhjkgom {lk lqmongonfhokoknoin {mm {km 90-(>-; _h *1410(1 |
  1
):-+:' {rn rn {rn {ll {kl |
  1
:336/,:r<*-): {rn rn {rn ghqjfmkljmlogifhfi momqfljjhnlmfkming o o o n rjqhgjjkngmfogmofhm:roni rlqnkfioimffmnmjfgm o n V V |
  1
/061+ {rn rn {rn gkqkkgjlmgnlglhgon molqnmjolhjoikoij o |
  1
:;8: {rn rn {rn {lg nqilofggnhhglfhmjf {kn lqognlglllihhjkgom {mg {kk 90-(>-; _h *1410(1 |
  1
):-+:' {rn rn {rn {mf {kj |
  1
:336/,:r<*-): {rn rn {rn nmqofkognkfhnjonnk nfgqnjnjjolioihnnh o o o n rnqjnghokhlonlkojoi:ronk rgmqihhnijljkllohnn o n V V |
  1
/061+ {rn rn {rn fkqimnjnffkkmknfgm nflqnhgoilmnkfljhg o |
  1
):-+:' {rn rn {rn {lh {ki |
  1
:336/,:r<*-): {rn rn {rn gfqjljomilhfolfgfn nhoqhnoiojkhghgnlf o o o n riqjoghlkjjhhnhljfj:ronj rljqkllohogiinknhll o n V V |
  1
/061+ {rn rn {rn ghqkomfnknklmklioi moiqohfkhokligoin o |
  1
:336/,:r<*-): {rn rn {rn fnqkhhinhjmhmoffgi momqfljjhnlmfkming o o o n rjqhgjjkngmfogmofhm:roni rlqnkfioimffmnmjfgm o n V V |
  1
/061+ {rn rn {rn fkqimnjnffkkmknfgm molqnmjolhjoikoikh o |
  1
/061+ {rn rn {rn fnqiihnlginkglimf moiqohfkhokligoin o |
  0
LINE
  5
4AC
102
{ACAD_REACTORS
330
6C8
102
}
330
21
100
AcDbEntity
  8
截面层
100
AcDbLine
 10
64.25057756014235
 20
227.6700136588063
 30
0.0
 11
65.37262480423681
 21
227.6700136588063
 31
0.0
  0
LINE
  5
4AD
330
21
100
AcDbEntity
  8
截面层
100
AcDbLine
 10
83.29091257001721
 20
227.6700136588061
 30
0.0
 11
84.0941768272221
 21
227.6700136588061
 31
0.0
  0
LINE
  5
4AE
102
{ACAD_REACTORS
330
4D2
102
}
330
21
100
AcDbEntity
  8
截面层
100
AcDbLine
 10
94.92859319470221
 20
227.670013658806
 30
0.0
 11
95.74664055226833
 21
227.670013658806
 31
0.0
  0
LINE
  5
4AF
330
21
100
AcDbEntity
  8
截面层
100
AcDbLine
 10
65.37752674324554
 20
227.2763128714047
 30
0.0
 11
65.88582912391423
 21
220.8363057409714
 31
0.0
  0
LINE
  5
4B0
330
21
100
AcDbEntity
  8
截面层
100
AcDbLine
 10
83.09406217631646
 20
227.2763128714047
 30
0.0
 11
82.58575979564788
 21
220.8363057409715
 31
0.0
  0
LINE
  5
4B3
330
21
100
AcDbEntity
  8
截面层
100
AcDbLine
 10
65.37752674324554
 20
227.4731632651055
 30
0.0
 11
65.37752674324554
 21
227.2763128714047
 31
0.0
  0
LINE
  5
4B4
330
21
100
AcDbEntity
  8
截面层
100
AcDbLine
 10
83.09406217631646
 20
227.2763128714048
 30
0.0
 11
83.09406217631646
 21
227.4731632651053
 31
0.0
  0
ARC
  5
4B5
102
{ACAD_REACTORS
330
6C8
102
}
330
21
100
AcDbEntity
  8
截面层
100
AcDbCircle
 10
75.23776899550288
 20
288.5862884821441
 30
0.0
 40
69.99192899487134
100
AcDbArc
 50
263.7819952762672
 51
267.3579280080625
  0
ARC
  5
4BA
330
21
100
AcDbEntity
  8
截面层
100
AcDbCircle
 10
73.23381992405839
 20
288.5862884821546
 30
0.0
 40
69.99192899488185
100
AcDbArc
 50
272.6420719919378
 51
276.2180047237325
  0
LINE
  5
4BB
330
21
100
AcDbEntity
  8
截面层
100
AcDbLine
 10
84.29033452402928
 20
227.4896628252041
 30
0.0
 11
84.66799530492135
 21
222.5341021868793
 31
0.0
  0
LINE
  5
4BC
330
21
100
AcDbEntity
  8
截面层
100
AcDbLine
 10
94.73243549789492
 20
227.489662825204
 30
0.0
 11
94.35477471700306
 21
222.5341021868799
 31
0.0
  0
ARC
  5
4BF
330
21
100
AcDbEntity
  8
截面层
100
AcDbCircle
 10
89.17673934162605
 20
279.6857616903037
 30
0.0
 40
59.05511811023622
100
AcDbArc
 50
267.4740486943576
 51
268.1662219999968
  0
ARC
  5
4C0
330
21
100
AcDbEntity
  8
截面层
100
AcDbCircle
 10
65.1806763495448
 20
227.4731632651055
 30
0.0
 40
0.1968503937007874
100
AcDbArc
 50
0.0
 51
90.0
  0
ARC
  5
4C1
330
21
100
AcDbEntity
  8
截面层
100
AcDbCircle
 10
83.29091257001721
 20
227.4731632651053
 30
0.0
 40
0.1968503937007874
100
AcDbArc
 50
90.0
 51
180.0
  0
ARC
  5
4C2
330
21
100
AcDbEntity
  8
截面层
100
AcDbCircle
 10
84.0941768272221
 20
227.4731632651053
 30
0.0
 40
0.1968503937007874
100
AcDbArc
 50
4.808045201226999
 51
90.0
  0
ARC
  5
4C3
330
21
100
AcDbEntity
  8
截面层
100
AcDbCircle
 10
94.92859319470221
 20
227.4731632651052
 30
0.0
 40
0.1968503937007874
100
AcDbArc
 50
90.0
 51
175.191954798773
  0
ARC
  5
4C8
330
21
100
AcDbEntity
  8
截面层
100
AcDbCircle
 10
89.84603068025178
 20
279.6857616903021
 30
0.0
 40
59.05511811023622
100
AcDbArc
 50
271.8337780000033
 51
272.5259513056891
  0
LINE
  5
4CD
330
21
100
AcDbEntity
  8
0
100
AcDbLine
 10
65.1806763495448
 20
227.6700136588063
 30
0.0
 11
83.29091257001721
 21
227.6700136588061
 31
0.0
  0
LINE
  5
4CE
330
21
100
AcDbEntity
  8
0
100
AcDbLine
 10
84.0941768272221
 20
227.6700136588061
 30
0.0
 11
94.97292361154029
 21
227.670013658806
 31
0.0
  0
REGION
  5
4CF
102
{ACAD_REACTORS
330
4DB
330
4E4
330
4EA
102
}
330
21
100
AcDbEntity
  8
0
100
AcDbModelerGeometry
 70
     1
  1
mogoo im m o          
  1
ni ^ *+0;:,4 ^ *+0\^ [ nh ^ LR iqoqmqhoml QK mk K7* P<+ mo njemfeog monn 
  1
n fqfffffffffffffffj:rooh n:rono 
  1
>,27:>;:- {rn rn _nm mogqoqmqhoml |
  1
=0;& {rn rn {rn {m {rn {rn |
  1
3*2/ {rn rn {rn {rn {l {n |
  1
,7:33 {rn rn {rn {rn {rn {k {rn {m |
  1
9><: {rn rn {rn {rn {j {l {rn {i 90-(>-; ;0*=3: 0*+ |
  1
300/ {rn rn {rn {rn {h {k |
  1
/3>1:r,*-9><: {rn rn {rn hfqfkkonmomhfkohkk nfgqijhihmffokooj o o o n oqolflhoohghkonjhkg o o 90-(>-;@) V V V V |
  1
<0:;8: {rn rn {rn {g {f {rn {no 90-(>-; {j {rn |
  1
<0:;8: {rn rn {rn {nn {h {rn {nm 90-(>-; {j {rn |
  1
<0:;8: {rn rn {rn {h {nl {rn {nk 90-(>-; {j {rn |
  1
:;8: {rn rn {rn {nj rnqjhohfilmihfkgfii {ni o {h {nh 90-(>-; _h *1410(1 |
  1
<0:;8: {rn rn {rn {ng {g {rn {nf 90-(>-; {j {rn |
  1
:;8: {rn rn {rn {ni o {mo mkiqooooooooooonkg {g {mn 90-(>-; _h *1410(1 |
  1
<0:;8: {rn rn {rn {f {mm {rn {ml 90-(>-; {j {rn |
  1
:;8: {rn rn {rn {mk rnqjlmhohkoolfoojih:romg {nj jifqmooooooooooohl {f {mj 90-(>-; _h *1410(1 |
  1
):-+:' {rn rn {rn {no {mi |
  1
):-+:' {rn rn {rn {no {mh |
  1
:336/,:r<*-): {rn rn {rn fnqjfholkmjlojjijk nflqlofoloihjilngm o o o n kqnkfioimffmnmjfgm o o n V V |
  1
<0:;8: {rn rn {rn {mg {nn {rn {mf 90-(>-; {j {rn |
  1
:;8: {rn rn {rn {mo nqinhflknmlnhmggnn:ronk {lo nqjhohfilmihfkgfii {nn {ln 90-(>-; _h *1410(1 |
  1
):-+:' {rn rn {rn {nm {lm |
  1
,+->687+r<*-): {rn rn {rn fjqhkiikojjmmigllm nflqlofoloihjilngm o o oqolflhoohghkonjhkg o V V |
  1
<0:;8: {rn rn {rn {nl {ll {rn {lk 90-(>-; {j {rn |
  1
:;8: {rn rn {rn {lj rlqnknjfmijljgfhfln {mk rnqjhohfilmihfkgfii {nl {li 90-(>-; _h *1410(1 |
  1
):-+:' {rn rn {rn {ml {lh |
  1
,+->687+r<*-): {rn rn {rn ifqnghjgjklknjhffj ngfqnjfkmklhiknfmm o oqolflhoohghkonjhkg lqflnhnofjikkhmmik:rong o V V |
  1
/061+ {rn rn {rn fnqjfholkmjlojjijk ngfqnjfkmklhiknfmm o |
  1
/061+ {rn rn {rn fjqhkiikojjmmigllm nflqlofoloihjilngm o |
  1
<0:;8: {rn rn {rn {lg {ng {rn {lf -:):-,:; {j {rn |
  1
:;8: {rn rn {rn {lo o {ko mohqfmnkgjoomkingj {ng {kn 90-(>-; _h *1410(1 |
  1
):-+:' {rn rn {rn {nf {km |
  1
:336/,:r<*-): {rn rn {rn fnqjfholkmjlojjijk momqffkohookjhnojk o o o n kqnkfioimffmnmjfgm o o n V V |
  1
/061+ {rn rn {rn fjqhkiikojjmmigllm momqffkohookjhnoil o |
  1
<0:;8: {rn rn {rn {mm {kl {rn {kk 90-(>-; {j {rn |
  1
:;8: {rn rn {rn {kj o {lj molqnoggfnlmkjjllg {mm {ki 90-(>-; _h *1410(1 |
  1
):-+:' {rn rn {rn {lk {kh |
  1
:336/,:r<*-): {rn rn {rn ifqnghjgjklknjhffj nfkqofiklmmjoklkfi o o o n kqflhoohghkonjgoj o o n V V |
  1
/061+ {rn rn {rn ifqnghjgjklknjhffj ngfqnjfkmklhiknfnk o |
  1
<0:;8: {rn rn {rn {kl {mg {rn {kg 90-(>-; {j {rn |
  1
:;8: {rn rn {rn {kf rmqmnkkiinlkflmflmh {ko rnqjhohfilmihfkgfii {mg {jo 90-(>-; _h *1410(1 |
  1
):-+:' {rn rn {rn {mf {jn |
  1
,+->687+r<*-): {rn rn {rn fnqjfholkmjlojjijk mohqnklihilkkfmlnn o roqolflhoohghkonjhkg rkqlojllikinhjhifff:ronh o V V |
  1
/061+ {rn rn {rn fnqjfholkmjlojjijk mohqnklihilkkfmlnn o |
  1
<0:;8: {rn rn {rn {ll {lg {rn {jm 90-(>-; {j {rn |
  1
:;8: {rn rn {rn {jl nqhgmoknlioklimofl {kj lqnknjfmijljgfhfln {ll {jk 90-(>-; _h *1410(1 |
  1
):-+:' {rn rn {rn {kk {jj |
  1
,+->687+r<*-): {rn rn {rn ikqmjojhhjionkmmll momqofmgkjmfkhogh o o roqolflhoohghkonjhkg o V V |
  1
/061+ {rn rn {rn ikqmjojhhjionkmmll nfkqofiklmmjoklkfi o |
  1
:;8: {rn rn {rn {kf oqfmhnmijngijigilmk {ji nqljfjjnmflnjljgkl {lg {jh 90-(>-; _h *1410(1 |
  1
):-+:' {rn rn {rn {lf {jg |
  1
:336/,:r<*-): {rn rn {rn glqknnnkfonihlgmj mnnqogoigkmngflggh o o o n lqflhoohghkonjhkgn o o n V V |
  1
/061+ {rn rn {rn glqknnnkfonihlgmj mohqnklihilkkfmlnn o |
  1
:;8: {rn rn {rn {ji nqljfjjnmflnjljgfk {jl nqhgmoknlioklimokm {kl {jf 90-(>-; _h *1410(1 |
  1
):-+:' {rn rn {rn {jm {io |
  1
:336/,:r<*-): {rn rn {rn hnqjkfhfonjgjihkhj momqofmgkjmfkhogh o o o n hqmffmnmjfgkmjmofi o o n V V |
  1
/061+ {rn rn {rn ikqmjojhhjionkmmll momqofmgkjmfkhogh o |
  1
):-+:' {rn rn {rn {kg {in |
  1
:336/,:r<*-): {rn rn {rn hiqiihfoolfkhghfmn momqofmgkjmfkhogh o o o n hqmffmnmjfgkmjmojm o o n V V |
  1
/061+ {rn rn {rn gnqokgknmfgfkmjfif mohqflnkhikiiflnii o |
  1
:336/,:r<*-): {rn rn {rn hkqnoggkjmhiihhifg nfoqnjfkmklhiknfm o o o n nfqjolflhoohghkonn o o n V V |
  1
/061+ {rn rn {rn hoqonflnoofhiohmnh mofqmmfgoofonfifjj o |
  1
/061+ {rn rn {rn hgqnfglgokjjhkgoij mofqmmfgoofonfifin o |
  0
DIMENSION
  5
4D0
102
{ACAD_XDICTIONARY
360
4D1
102
}
102
{ACAD_REACTORS
330
4D2
102
}
330
21
100
AcDbEntity
  8
标注
100
AcDbDimension
  2
*D44
 10
98.28117122314928
 20
220.6608875449765
 30
0.0
 11
98.28117122314925
 21
224.1654506018913
 31
0.0
 70
    32
 71
     5
 42
7.009126113829495
  3
副本Standard
100
AcDbAlignedDimension
 13
95.74664055226833
 23
227.670013658806
 33
0.0
 14
91.40114879049148
 24
220.6608875449765
 34
0.0
 50
90.0
100
AcDbRotatedDimension
  0
DIMENSION
  5
4D6
102
{ACAD_XDICTIONARY
360
4D7
102
}
102
{ACAD_REACTORS
330
4D8
102
}
330
21
100
AcDbEntity
  8
标注
100
AcDbDimension
  2
*D46
 10
98.48269840832942
 20
190.1594243764192
 30
0.0
 11
98.48269840832941
 21
198.1515503606711
 31
0.0
 70
   160
 71
     5
 42
15.98425196850391
  3
副本Standard
100
AcDbAlignedDimension
 13
89.53502637903991
 23
206.1436763449231
 33
0.0
 14
89.53502637903978
 24
190.1594243764192
 34
0.0
 50
90.0
100
AcDbRotatedDimension
  0
DIMENSION
  5
4D9
102
{ACAD_XDICTIONARY
360
4DA
102
}
102
{ACAD_REACTORS
330
4DB
102
}
330
21
100
AcDbEntity
  8
标注
100
AcDbDimension
  2
*D47
 10
101.0870415025555
 20
189.1594243764192
 30
0.0
 11
101.0870415025554
 21
198.1515503606712
 31
0.0
 70
    32
 71
     5
 42
17.98425196850397
  3
副本Standard
100
AcDbAlignedDimension
 13
91.59703425305565
 23
207.1436763449231
 33
0.0
 14
91.59703425305565
 24
189.1594243764192
 34
0.0
 50
90.0
100
AcDbRotatedDimension
  0
DIMENSION
  5
4DC
102
{ACAD_XDICTIONARY
360
4DD
102
}
102
{ACAD_REACTORS
330
4DE
102
}
330
21
100
AcDbEntity
  8
标注
100
AcDbDimension
  2
*D48
 10
94.77124685148078
 20
187.0000250198774
 30
0.0
 11
89.53502637903989
 21
187.0000250198774
 31
0.0
 70
    32
 71
     5
 42
10.47244094488178
  3
副本Standard
100
AcDbAlignedDimension
 13
84.298805906599
 23
198.1269440614586
 33
0.0
 14
94.77124685148078
 24
198.1515503606711
 34
0.0
100
AcDbRotatedDimension
  0
DIMENSION
  5
4DF
102
{ACAD_XDICTIONARY
360
4E0
102
}
102
{ACAD_REACTORS
330
4E1
102
}
330
21
100
AcDbEntity
  8
标注
100
AcDbDimension
  2
*D49
 10
65.27518385935478
 20
187.0317865246787
 30
0.0
 11
74.13345157589025
 21
187.0317865246787
 31
0.0
 70
    32
 71
     5
 42
17.71653543307093
  3
副本Standard
100
AcDbAlignedDimension
 13
82.99171929242572
 23
194.0964322504349
 33
0.0
 14
65.27518385935478
 24
194.0964322504349
 34
0.0
100
AcDbRotatedDimension
  0
DIMENSION
  5
4E2
102
{ACAD_XDICTIONARY
360
4E3
102
}
102
{ACAD_REACTORS
330
4E4
102
}
330
21
100
AcDbEntity
  8
标注
100
AcDbDimension
  2
*D50
 10
95.74664055226833
 20
184.9228322830472
 30
0.0
 11
79.99860905620528
 21
184.9228322830472
 31
0.0
 70
   160
 71
     5
 42
31.4960629921261
  3
副本Standard
100
AcDbAlignedDimension
 13
64.25057756014223
 23
194.0964322504349
 33
0.0
 14
95.74664055226833
 24
193.3090306756318
 34
0.0
100
AcDbRotatedDimension
  0
DIMENSION
  5
4E5
102
{ACAD_XDICTIONARY
360
4E6
102
}
102
{ACAD_REACTORS
330
4E7
102
}
330
21
100
AcDbEntity
  8
标注
100
AcDbDimension
  2
*D51
 10
61.41064011717947
 20
190.1594243764192
 30
0.0
 11
61.41064011717944
 21
199.4113928803562
 31
0.0
 70
    32
 71
     5
 42
18.50393700787404
  3
副本Standard
100
AcDbAlignedDimension
 13
74.13345157589038
 23
208.6633613842932
 33
0.0
 14
69.21219173337056
 24
190.1594243764192
 34
0.0
 50
90.0
100
AcDbRotatedDimension
  0
DIMENSION
  5
4E8
102
{ACAD_XDICTIONARY
360
4E9
102
}
102
{ACAD_REACTORS
330
4EA
102
}
330
21
100
AcDbEntity
  8
标注
100
AcDbDimension
  2
*D52
 10
58.99789916953398
 20
189.1594243764191
 30
0.0
 11
58.99789916953395
 21
199.4113928803562
 31
0.0
 70
    32
 71
     5
 42
20.5039370078741
  3
副本Standard
100
AcDbAlignedDimension
 13
74.1088452766777
 23
209.6633613842932
 33
0.0
 14
69.18758543415799
 24
189.1594243764191
 34
0.0
 50
90.0
100
AcDbRotatedDimension
  0
ARC
  5
683
330
21
100
AcDbEntity
  8
截面层
100
AcDbCircle
 10
67.87962831714445
 20
220.9936740258146
 30
0.0
 40
2.0
100
AcDbArc
 50
184.5129342122581
 51
263.6037459173347
  0
ARC
  5
684
330
21
100
AcDbEntity
  8
截面层
100
AcDbCircle
 10
80.59196060241765
 20
220.9936740258147
 30
0.0
 40
2.0
100
AcDbArc
 50
276.3962540826652
 51
355.4870657877436
  0
LINE
  5
694
330
21
100
AcDbEntity
  8
中心线
 48
0.1
100
AcDbLine
 10
74.23579445978166
 20
221.1213527956794
 30
0.0
 11
74.23579445978126
 21
217.4257861603136
 31
0.0
  0
LINE
  5
695
330
21
100
AcDbEntity
  8
0
100
AcDbLine
 10
72.46564726149776
 20
218.471911167024
 30
0.0
 11
76.00594165806504
 21
218.471911167024
 31
0.0
  0
LINE
  5
696
330
21
100
AcDbEntity
  8
截面层
100
AcDbLine
 10
76.00594165806504
 20
218.471911167024
 30
0.0
 11
76.35418866080292
 21
218.471911167024
 31
0.0
  0
LINE
  5
697
330
21
100
AcDbEntity
  8
截面层
100
AcDbLine
 10
72.01138501096213
 20
218.6687615607247
 30
0.0
 11
72.1643399195714
 21
218.471911167024
 31
0.0
  0
LINE
  5
698
330
21
100
AcDbEntity
  8
截面层
100
AcDbLine
 10
72.1643399195714
 20
218.471911167024
 30
0.0
 11
72.46564726149776
 21
218.471911167024
 31
0.0
  0
LINE
  5
699
330
21
100
AcDbEntity
  8
截面层
100
AcDbLine
 10
76.35418866080292
 20
218.471911167024
 30
0.0
 11
76.46020390859999
 21
218.6687615607247
 31
0.0
  0
LINE
  5
69A
102
{ACAD_REACTORS
330
6C8
102
}
330
21
100
AcDbEntity
  8
0
100
AcDbLine
 10
72.01138501096213
 20
218.6687615607247
 30
0.0
 11
76.46020390859999
 21
218.6687615607247
 31
0.0
  0
LINE
  5
6A7
330
21
100
AcDbEntity
  8
中心线
 48
0.1
100
AcDbLine
 10
89.51138501096275
 20
223.1134787799312
 30
0.0
 11
89.51138501096236
 21
219.4179121445654
 31
0.0
  0
LINE
  5
6A8
330
21
100
AcDbEntity
  8
0
100
AcDbLine
 10
87.74123781267887
 20
220.4640371512758
 30
0.0
 11
91.28153220924614
 21
220.4640371512758
 31
0.0
  0
LINE
  5
6A9
330
21
100
AcDbEntity
  8
截面层
100
AcDbLine
 10
91.28153220924614
 20
220.4640371512758
 30
0.0
 11
91.62977921198402
 21
220.4640371512758
 31
0.0
  0
LINE
  5
6AA
330
21
100
AcDbEntity
  8
截面层
100
AcDbLine
 10
87.28697556214322
 20
220.6608875449765
 30
0.0
 11
87.4399304707525
 21
220.4640371512758
 31
0.0
  0
LINE
  5
6AB
330
21
100
AcDbEntity
  8
截面层
100
AcDbLine
 10
87.4399304707525
 20
220.4640371512758
 30
0.0
 11
87.74123781267887
 21
220.4640371512758
 31
0.0
  0
LINE
  5
6AC
330
21
100
AcDbEntity
  8
截面层
100
AcDbLine
 10
91.62977921198402
 20
220.4640371512758
 30
0.0
 11
91.73579445978109
 21
220.6608875449765
 31
0.0
  0
LINE
  5
6AD
330
21
100
AcDbEntity
  8
0
100
AcDbLine
 10
87.28697556214322
 20
220.6608875449765
 30
0.0
 11
91.73579445978109
 21
220.6608875449765
 31
0.0
  0
ARC
  5
6AE
330
21
100
AcDbEntity
  8
截面层
100
AcDbCircle
 10
92.36055742751032
 20
222.6860804823312
 30
0.0
 40
2.0
100
AcDbArc
 50
272.5259513056883
 51
355.6419415045683
  0
ARC
  5
6AF
330
21
100
AcDbEntity
  8
截面层
100
AcDbCircle
 10
86.6622125944141
 20
222.6860804823306
 30
0.0
 40
2.0
100
AcDbArc
 50
184.3580584954349
 51
267.4740486943573
  0
DIMENSION
  5
6B1
102
{ACAD_XDICTIONARY
360
6BE
102
}
102
{ACAD_REACTORS
330
6C8
102
}
330
21
100
AcDbEntity
  8
标注
100
AcDbDimension
  2
*D55
 10
61.45300464475894
 20
218.6687615607247
 30
0.0
 11
61.45300464475891
 21
223.1693876097655
 31
0.0
 70
    32
 71
     5
 42
9.001252098081636
  3
副本Standard
100
AcDbAlignedDimension
 13
64.25057756014235
 23
227.6700136588063
 33
0.0
 14
72.01138501096234
 24
218.6687615607247
 34
0.0
 50
90.0
100
AcDbRotatedDimension
  0
LINE
  5
6DF
330
21
100
AcDbEntity
  8
中心线
 48
0.1
100
AcDbLine
 10
74.13345157589026
 20
205.9380731156514
 30
0.0
 11
74.13345157589026
 21
197.8895742521057
 31
0.0
  0
LINE
  5
6E0
330
21
100
AcDbEntity
  8
中心线
 48
0.1
100
AcDbLine
 10
69.60591420527726
 20
201.9704479984664
 30
0.0
 11
78.65909794466955
 21
201.9704479984664
 31
0.0
  0
CIRCLE
  5
6E1
330
21
100
AcDbEntity
  8
0
100
AcDbCircle
 10
74.13250607497326
 20
201.9704479984664
 30
0.0
 40
1.771653543307085
  0
CIRCLE
  5
6E2
330
21
100
AcDbEntity
  8
0
100
AcDbCircle
 10
74.13250607497326
 20
201.9704479984664
 30
0.0
 40
2.165354330708659
  0
CIRCLE
  5
6E3
330
21
100
AcDbEntity
  8
0
100
AcDbCircle
 10
74.13250607497326
 20
201.9704479984664
 30
0.0
 40
2.283464566929133
  0
LINE
  5
6ED
330
21
100
AcDbEntity
  8
中心线
 48
0.1
100
AcDbLine
 10
89.53502637903989
 20
204.599490438486
 30
0.0
 11
89.53502637903989
 21
196.5509915749403
 31
0.0
  0
LINE
  5
6EE
330
21
100
AcDbEntity
  8
中心线
 48
0.1
100
AcDbLine
 10
85.00748900842689
 20
200.6318653213011
 30
0.0
 11
94.06067274781918
 21
200.6318653213011
 31
0.0
  0
CIRCLE
  5
6EF
330
21
100
AcDbEntity
  8
0
100
AcDbCircle
 10
89.5340808781229
 20
200.6318653213011
 30
0.0
 40
1.771653543307085
  0
CIRCLE
  5
6F0
330
21
100
AcDbEntity
  8
0
100
AcDbCircle
 10
89.5340808781229
 20
200.6318653213011
 30
0.0
 40
2.165354330708659
  0
CIRCLE
  5
6F1
330
21
100
AcDbEntity
  8
0
100
AcDbCircle
 10
89.5340808781229
 20
200.6318653213011
 30
0.0
 40
2.283464566929133
  0
MTEXT
  5
75D
330
21
100
AcDbEntity
  8
标注
 48
5.0
100
AcDbMText
 10
76.57371400597748
 20
215.4745373824368
 30
0.0
 40
0.7874015748031497
 41
15.1555422233215
 71
     1
 72
     5
  1
{\fArial|b0|i0|c0|p32;FRONT VIEW }
 73
     1
 44
1.0
  0
MTEXT
  5
75E
330
21
100
AcDbEntity
  8
标注
 48
5.0
100
AcDbMText
 10
76.33925585874931
 20
181.3972605482967
 30
0.0
 40
0.7874015748031497
 41
15.1555422233215
 71
     1
 72
     5
  1
{\fArial|b0|i0|c0|p32;OVERHEAD VIEW}
 73
     1
 44
1.0
  0
LINE
  5
75F
330
21
100
AcDbEntity
  8
虚线
 62
     3
 48
0.3
370
    35
100
AcDbLine
 10
71.47375705562416
 20
143.7925950736716
 30
0.0
 11
77.6905620597081
 21
143.7925950736716
 31
0.0
  0
LINE
  5
760
330
21
100
AcDbEntity
  8
截面层
 62
     1
 48
0.2
370
    35
100
AcDbLine
 10
71.47375705562416
 20
141.8240911366637
 30
0.0
 11
77.6905620597081
 21
141.8240911366637
 31
0.0
  0
LINE
  5
761
330
21
100
AcDbEntity
  8
虚线
 62
    11
 48
0.15
370
    35
100
AcDbLine
 10
71.47375705562416
 20
139.8555871996558
 30
0.0
 11
77.6905620597081
 21
139.8555871996558
 31
0.0
  0
MTEXT
  5
762
330
21
100
AcDbEntity
  8
标注
 48
5.0
100
AcDbMText
 10
79.13916313619108
 20
144.3407600112824
 30
0.0
 40
0.7874015748031497
 41
15.1555422233215
 71
     1
 72
     5
  1
1/4" {\fArial|b0|i0|c0|p32;REVEAL CUTOUT}
 73
     1
 44
1.0
  0
MTEXT
  5
763
330
21
100
AcDbEntity
  8
标注
 48
5.0
100
AcDbMText
 10
79.13916313619068
 20
142.3722560742745
 30
0.0
 40
0.7874015748031497
 41
15.1555422233215
 71
     1
 72
     5
  1
{\fArial|b0|i0|c0|p32;FLUSH CUTOUT}
 73
     1
 44
1.0
  0
MTEXT
  5
764
330
21
100
AcDbEntity
  8
标注
 48
5.0
100
AcDbMText
 10
79.13916313619108
 20
140.4037521372666
 30
0.0
 40
0.7874015748031497
 41
15.1555422233215
 71
     1
 72
     5
  1
1/4" {\fArial|b0|i0|c0|p32;OVERHANG CUTOUT}
 73
     1
 44
1.0
  0
MTEXT
  5
765
330
21
100
AcDbEntity
  8
标注
 48
5.0
100
AcDbMText
 10
74.3298768471222
 20
109.0238508549169
 30
0.0
 40
0.7874015748031497
 41
15.1555422233215
 71
     1
 72
     5
  1
1/4" {\fArial|b0|i0|c0|p32;REVEAL CUTOUT}
 73
     1
 44
1.0
  0
MTEXT
  5
766
330
21
100
AcDbEntity
  8
标注
 48
5.0
100
AcDbMText
 10
75.68252385820961
 20
79.46890315579131
 30
0.0
 40
0.7874015748031497
 41
15.1555422233215
 71
     1
 72
     5
  1
{\fArial|b0|i0|c0|p32;FLUSH CUTOUT}
 73
     1
 44
1.0
  0
MTEXT
  5
767
330
21
100
AcDbEntity
  8
标注
 48
5.0
100
AcDbMText
 10
72.14049248619744
 20
49.76926390227013
 30
0.0
 40
0.7874015748031497
 41
15.1555422233215
 71
     1
 72
     5
  1
1/4" {\fArial|b0|i0|c0|p32;OVERHANG CUTOUT}
 73
     1
 44
1.0
  0
CIRCLE
  5
7EB
330
21
100
AcDbEntity
  8
0
100
AcDbCircle
 10
89.48565435950314
 20
160.3484893935064
 30
0.0
 40
2.283464566929133
  0
CIRCLE
  5
7EC
330
21
100
AcDbEntity
  8
0
100
AcDbCircle
 10
89.48565435950314
 20
160.3484893935064
 30
0.0
 40
2.165354330708659
  0
CIRCLE
  5
7ED
330
21
100
AcDbEntity
  8
0
100
AcDbCircle
 10
89.48565435950314
 20
160.3484893935064
 30
0.0
 40
1.771653543307085
  0
LINE
  5
7EE
330
21
100
AcDbEntity
  8
中心线
 48
0.1
100
AcDbLine
 10
84.95906248980714
 20
160.3484893935064
 30
0.0
 11
94.01224622919944
 21
160.3484893935064
 31
0.0
  0
LINE
  5
7EF
330
21
100
AcDbEntity
  8
中心线
 48
0.1
100
AcDbLine
 10
89.48659986042015
 20
164.3161145106914
 30
0.0
 11
89.48659986042015
 21
156.2676156471457
 31
0.0
  0
CIRCLE
  5
7F0
330
21
100
AcDbEntity
  8
0
100
AcDbCircle
 10
74.08407955635351
 20
161.6870720706718
 30
0.0
 40
2.283464566929133
  0
CIRCLE
  5
7F1
330
21
100
AcDbEntity
  8
0
100
AcDbCircle
 10
74.08407955635351
 20
161.6870720706718
 30
0.0
 40
2.165354330708659
  0
CIRCLE
  5
7F2
330
21
100
AcDbEntity
  8
0
100
AcDbCircle
 10
74.08407955635351
 20
161.6870720706718
 30
0.0
 40
1.771653543307085
  0
LINE
  5
7F3
330
21
100
AcDbEntity
  8
中心线
 48
0.1
100
AcDbLine
 10
69.55748768665751
 20
161.6870720706718
 30
0.0
 11
78.6106714260498
 21
161.6870720706718
 31
0.0
  0
LINE
  5
7F4
330
21
100
AcDbEntity
  8
中心线
 48
0.1
100
AcDbLine
 10
74.08502505727051
 20
165.6546971878567
 30
0.0
 11
74.08502505727051
 21
157.606198324311
 31
0.0
  0
ARC
  5
87D
330
21
100
AcDbEntity
  8
0
100
AcDbCircle
 10
79.00628489979022
 20
153.8130563226403
 30
0.0
 40
3.937007874015748
100
AcDbArc
 50
270.0
 51
0.0
  0
LINE
  5
87E
330
21
100
AcDbEntity
  8
0
100
AcDbLine
 10
82.94329277380597
 20
161.809469366914
 30
0.0
 11
82.94329277380597
 21
153.8130563226403
 31
0.0
  0
LINE
  5
87F
330
21
100
AcDbEntity
  8
截面层
 62
     1
 48
0.2
370
    35
100
AcDbLine
 10
89.48659986042015
 20
149.8760484486245
 30
0.0
 11
69.16376521475081
 21
149.8760484486245
 31
0.0
  0
ARC
  5
880
330
21
100
AcDbEntity
  8
截面层
 62
     1
 48
0.2
370
    35
100
AcDbCircle
 10
76.64408017538073
 20
161.809469366914
 30
0.0
 40
6.299212598425196
100
AcDbArc
 50
43.10138464313602
 51
77.89655112925427
  0
ARC
  5
881
330
21
100
AcDbEntity
  8
截面层
 62
     1
 48
0.2
370
    35
100
AcDbCircle
 10
69.16376521475081
 20
153.8130563226403
 30
0.0
 40
3.937007874015748
100
AcDbArc
 50
180.0
 51
270.0
  0
ARC
  5
882
330
21
100
AcDbEntity
  8
截面层
 62
     1
 48
0.2
370
    35
100
AcDbCircle
 10
74.08502505727051
 20
149.8760484486245
 30
0.0
 40
18.50393700787401
100
AcDbArc
 50
77.89655112925423
 51
102.1034488707457
  0
LINE
  5
883
330
21
100
AcDbEntity
  8
截面层
 62
     1
 48
0.2
370
    35
100
AcDbLine
 10
65.22675734073505
 20
153.8130563226403
 30
0.0
 11
65.22675734073505
 21
161.809469366914
 31
0.0
  0
ARC
  5
884
330
21
100
AcDbEntity
  8
截面层
 62
     1
 48
0.2
370
    35
100
AcDbCircle
 10
71.52596993916029
 20
161.809469366914
 30
0.0
 40
6.299212598425196
100
AcDbArc
 50
102.1034488707457
 51
180.0
  0
ARC
  5
885
330
21
100
AcDbEntity
  8
0
100
AcDbCircle
 10
91.54860773443591
 20
153.0256547478372
 30
0.0
 40
4.149606299212598
100
AcDbArc
 50
270.0
 51
0.0
  0
LINE
  5
886
330
21
100
AcDbEntity
  8
0
100
AcDbLine
 10
95.69821403364858
 20
153.0256547478372
 30
0.0
 11
95.69821403364858
 21
162.710694117916
 31
0.0
  0
LINE
  5
887
330
21
100
AcDbEntity
  8
0
100
AcDbLine
 10
69.13915891553824
 20
148.8760484486245
 30
0.0
 11
91.54860773443591
 21
148.8760484486246
 31
0.0
  0
ARC
  5
888
330
21
100
AcDbEntity
  8
0
100
AcDbCircle
 10
91.54860773443591
 20
162.7106941179159
 30
0.0
 40
4.149606299212598
100
AcDbArc
 50
0.0000000000011773
 51
90.0
  0
ARC
  5
889
330
21
100
AcDbEntity
  8
0
100
AcDbCircle
 10
69.13915891553824
 20
153.8130563226403
 30
0.0
 40
4.937007874015804
100
AcDbArc
 50
180.0
 51
270.0
  0
LINE
  5
88A
330
21
100
AcDbEntity
  8
0
100
AcDbLine
 10
91.54860773443591
 20
166.8603004171285
 30
0.0
 11
83.3627224981185
 21
166.8603004171285
 31
0.0
  0
LINE
  5
88B
330
21
100
AcDbEntity
  8
0
100
AcDbLine
 10
64.20215104152248
 20
161.809469366914
 30
0.0
 11
64.20215104152248
 21
153.8130563226403
 31
0.0
  0
ARC
  5
88C
330
21
100
AcDbEntity
  8
0
100
AcDbCircle
 10
83.3627224981185
 20
170.7973082911442
 30
0.0
 40
3.937007874015748
100
AcDbArc
 50
233.1204365936948
 51
270.0
  0
ARC
  5
88D
330
21
100
AcDbEntity
  8
0
100
AcDbCircle
 10
71.50136363994772
 20
161.809469366914
 30
0.0
 40
7.299212598425209
100
AcDbArc
 50
102.1034488707469
 51
180.0
  0
ARC
  5
88E
330
21
100
AcDbEntity
  8
0
100
AcDbCircle
 10
76.61947387616817
 20
161.809469366914
 30
0.0
 40
7.299212598425205
100
AcDbArc
 50
53.12043659369553
 51
77.89655112925403
  0
ARC
  5
88F
330
21
100
AcDbEntity
  8
0
100
AcDbCircle
 10
74.06041875805795
 20
149.8760484486245
 30
0.0
 40
19.50393700787401
100
AcDbArc
 50
77.89655112925416
 51
102.1034488707462
  0
ARC
  5
890
330
21
100
AcDbEntity
  8
0
100
AcDbCircle
 10
87.54400871225005
 20
153.0841534641215
 30
0.0
 40
3.149606299212598
100
AcDbArc
 50
183.4487390259487
 51
266.5502602591726
  0
ARC
  5
891
330
21
100
AcDbEntity
  8
截面层
 62
     1
 48
0.2
370
    35
100
AcDbCircle
 10
89.48659986042015
 20
185.3091193147663
 30
0.0
 40
35.43307086614174
100
AcDbArc
 50
270.0
 51
273.4497397408262
  0
ARC
  5
892
330
21
100
AcDbEntity
  8
0
100
AcDbCircle
 10
166.9275447423099
 20
157.8681744328765
 30
0.0
 40
82.67716535433072
100
AcDbArc
 50
176.5512609740504
 51
183.4487390259495
  0
ARC
  5
893
330
21
100
AcDbEntity
  8
截面层
 62
     1
 48
0.2
370
    35
100
AcDbCircle
 10
91.42919100859023
 20
153.0841534641215
 30
0.0
 40
3.149606299212598
100
AcDbArc
 50
273.4497397408254
 51
356.5512609740508
  0
ARC
  5
894
330
21
100
AcDbEntity
  8
0
100
AcDbCircle
 10
87.54400871225005
 20
162.6521954016315
 30
0.0
 40
3.149606299212598
100
AcDbArc
 50
93.44973974082334
 51
176.5512609740518
  0
ARC
  5
895
330
21
100
AcDbEntity
  8
截面层
 62
     1
 48
0.2
370
    35
100
AcDbCircle
 10
12.04565497853036
 20
157.8681744328765
 30
0.0
 40
82.67716535433072
100
AcDbArc
 50
356.5512609740505
 51
3.448739025949523
  0
ARC
  5
896
330
21
100
AcDbEntity
  8
截面层
 62
     1
 48
0.2
370
    35
100
AcDbCircle
 10
89.48659986042015
 20
130.4272295509868
 30
0.0
 40
35.43307086614174
100
AcDbArc
 50
86.55026025917385
 51
90.0
  0
ARC
  5
897
330
21
100
AcDbEntity
  8
截面层
 62
     1
 48
0.2
370
    35
100
AcDbCircle
 10
91.42919100859023
 20
162.6521954016315
 30
0.0
 40
3.149606299212598
100
AcDbArc
 50
3.448739025947692
 51
86.55026025917459
  0
ARC
  5
899
330
21
100
AcDbEntity
  8
虚线
 62
    11
 48
0.15
370
    35
100
AcDbCircle
 10
71.52596993916029
 20
161.809469366914
 30
0.0
 40
6.049212598425196
100
AcDbArc
 50
102.1034488707457
 51
180.0
  0
ARC
  5
89A
330
21
100
AcDbEntity
  8
虚线
 62
    11
 48
0.15
370
    35
100
AcDbCircle
 10
74.08502505727051
 20
149.8760484486245
 30
0.0
 40
18.25393700787401
100
AcDbArc
 50
77.89655112925423
 51
102.1034488707457
  0
ARC
  5
89B
330
21
100
AcDbEntity
  8
虚线
 62
     3
 48
0.3
370
    35
100
AcDbCircle
 10
71.52596993916029
 20
161.809469366914
 30
0.0
 40
6.549212598425196
100
AcDbArc
 50
102.1034488707457
 51
180.0
  0
ARC
  5
89C
330
21
100
AcDbEntity
  8
虚线
 62
     3
 48
0.3
370
    35
100
AcDbCircle
 10
74.08502505727051
 20
149.8760484486245
 30
0.0
 40
18.75393700787401
100
AcDbArc
 50
77.89655112925423
 51
102.1034488707457
  0
ARC
  5
89D
330
21
100
AcDbEntity
  8
虚线
 62
     3
 48
0.3
370
    35
100
AcDbCircle
 10
76.64408017538073
 20
161.809469366914
 30
0.0
 40
6.549212598425196
100
AcDbArc
 50
43.95275446780132
 51
77.89655112925427
  0
ARC
  5
89E
330
21
100
AcDbEntity
  8
虚线
 62
    11
 48
0.15
370
    35
100
AcDbCircle
 10
76.64408017538073
 20
161.809469366914
 30
0.0
 40
6.049212598425196
100
AcDbArc
 50
42.20083480579376
 51
77.89655112925427
  0
LINE
  5
89F
330
21
100
AcDbEntity
  8
虚线
 62
    11
 48
0.15
370
    35
100
AcDbLine
 10
65.47675734073505
 20
153.8130563226403
 30
0.0
 11
65.47675734073505
 21
161.809469366914
 31
0.0
  0
LINE
  5
8A0
330
21
100
AcDbEntity
  8
虚线
 62
     3
 48
0.3
370
    35
100
AcDbLine
 10
64.97675734073505
 20
153.8130563226403
 30
0.0
 11
64.97675734073505
 21
161.809469366914
 31
0.0
  0
ARC
  5
8A1
330
21
100
AcDbEntity
  8
虚线
 62
     3
 48
0.3
370
    35
100
AcDbCircle
 10
69.16376521475081
 20
153.8130563226403
 30
0.0
 40
4.187007874015748
100
AcDbArc
 50
180.0
 51
270.0
  0
ARC
  5
8A2
330
21
100
AcDbEntity
  8
虚线
 62
    11
 48
0.15
370
    35
100
AcDbCircle
 10
69.16376521475081
 20
153.8130563226403
 30
0.0
 40
3.687007874015748
100
AcDbArc
 50
180.0
 51
270.0
  0
LINE
  5
8A3
330
21
100
AcDbEntity
  8
虚线
 62
    11
 48
0.15
370
    35
100
AcDbLine
 10
89.48659986042015
 20
150.1260484486246
 30
0.0
 11
69.16376521475081
 21
150.1260484486246
 31
0.0
  0
LINE
  5
8A4
330
21
100
AcDbEntity
  8
虚线
 62
     3
 48
0.3
370
    35
100
AcDbLine
 10
89.48659986042015
 20
149.6260484486245
 30
0.0
 11
69.16376521475081
 21
149.6260484486245
 31
0.0
  0
ARC
  5
8A5
330
21
100
AcDbEntity
  8
虚线
 62
     3
 48
0.3
370
    35
100
AcDbCircle
 10
89.48659986042015
 20
185.3091193147663
 30
0.0
 40
35.68307086614173
100
AcDbArc
 50
270.0
 51
273.4497397408262
  0
ARC
  5
8A6
330
21
100
AcDbEntity
  8
虚线
 62
     3
 48
0.3
370
    35
100
AcDbCircle
 10
91.42919100859023
 20
153.0841534641215
 30
0.0
 40
3.399606299212598
100
AcDbArc
 50
273.4497397408254
 51
356.5512609740508
  0
ARC
  5
8A7
330
21
100
AcDbEntity
  8
虚线
 62
    11
 48
0.15
370
    35
100
AcDbCircle
 10
91.42919100859023
 20
153.0841534641215
 30
0.0
 40
2.899606299212598
100
AcDbArc
 50
273.4497397408254
 51
356.5512609740508
  0
ARC
  5
8A8
330
21
100
AcDbEntity
  8
虚线
 62
    11
 48
0.15
370
    35
100
AcDbCircle
 10
89.48659986042015
 20
185.3091193147663
 30
0.0
 40
35.18307086614174
100
AcDbArc
 50
270.0
 51
273.4497397408262
  0
ARC
  5
8A9
330
21
100
AcDbEntity
  8
虚线
 62
     3
 48
0.3
370
    35
100
AcDbCircle
 10
12.04565497853036
 20
157.8681744328765
 30
0.0
 40
82.9271653543307
100
AcDbArc
 50
356.5512609740505
 51
3.448739025949523
  0
ARC
  5
8AA
330
21
100
AcDbEntity
  8
虚线
 62
    11
 48
0.15
370
    35
100
AcDbCircle
 10
12.04565497853036
 20
157.8681744328765
 30
0.0
 40
82.42716535433071
100
AcDbArc
 50
356.5512609740505
 51
3.448739025949523
  0
ARC
  5
8AB
330
21
100
AcDbEntity
  8
虚线
 62
     3
 48
0.3
370
    35
100
AcDbCircle
 10
91.42919100859023
 20
162.6521954016315
 30
0.0
 40
3.399606299212598
100
AcDbArc
 50
3.448739025947692
 51
86.55026025917459
  0
ARC
  5
8AC
330
21
100
AcDbEntity
  8
虚线
 62
    11
 48
0.15
370
    35
100
AcDbCircle
 10
91.42919100859023
 20
162.6521954016315
 30
0.0
 40
2.899606299212598
100
AcDbArc
 50
3.448739025947692
 51
86.55026025917459
  0
ARC
  5
8AD
330
21
100
AcDbEntity
  8
虚线
 62
     3
 48
0.3
370
    35
100
AcDbCircle
 10
89.48659986042015
 20
130.4272295509868
 30
0.0
 40
35.68307086614173
100
AcDbArc
 50
86.55026025917385
 51
90.0
  0
ARC
  5
8AE
330
21
100
AcDbEntity
  8
虚线
 62
    11
 48
0.15
370
    35
100
AcDbCircle
 10
89.48659986042015
 20
130.4272295509868
 30
0.0
 40
35.18307086614174
100
AcDbArc
 50
86.55026025917385
 51
90.0
  0
LINE
  5
8B3
330
21
100
AcDbEntity
  8
截面层
 62
     1
 48
0.2
370
    35
100
AcDbLine
 10
89.48659986042022
 20
165.8603004171285
 30
0.0
 11
81.82754018197043
 21
165.8603004171285
 31
0.0
  0
ARC
  5
8B4
330
21
100
AcDbEntity
  8
0
100
AcDbCircle
 10
89.48659986042015
 20
185.3091193147663
 30
0.0
 40
35.43307086614174
100
AcDbArc
 50
266.5502602591739
 51
270.0
  0
LINE
  5
8B6
330
21
100
AcDbEntity
  8
虚线
 62
    11
 48
0.15
370
    35
100
AcDbLine
 10
89.48659986042022
 20
165.6103004171285
 30
0.0
 11
81.71794131516456
 21
165.6103004171285
 31
0.0
  0
LINE
  5
8B7
330
21
100
AcDbEntity
  8
虚线
 62
     3
 48
0.3
370
    35
100
AcDbLine
 10
89.48659986042022
 20
166.1103004171285
 30
0.0
 11
81.93486919158813
 21
166.1103004171285
 31
0.0
  0
ARC
  5
8B9
330
21
100
AcDbEntity
  8
0
100
AcDbCircle
 10
89.48659986042031
 20
130.4272295509868
 30
0.0
 40
35.43307086614174
100
AcDbArc
 50
90.0
 51
93.44973974082614
  0
ARC
  5
8BB
330
21
100
AcDbEntity
  8
虚线
 62
     3
 48
0.3
370
    35
100
AcDbCircle
 10
81.93486919158813
 20
166.9103004171284
 30
0.0
 40
0.8
100
AcDbArc
 50
223.9527544678011
 51
270.0
  0
ARC
  5
8BC
330
21
100
AcDbEntity
  8
截面层
 62
     1
 48
0.2
370
    35
100
AcDbCircle
 10
81.82754018197043
 20
166.6603004171285
 30
0.0
 40
0.8
100
AcDbArc
 50
223.1013846431359
 51
270.0
  0
ARC
  5
8BD
330
21
100
AcDbEntity
  8
虚线
 62
    11
 48
0.15
370
    35
100
AcDbCircle
 10
81.71794131516456
 20
166.4103004171285
 30
0.0
 40
0.8
100
AcDbArc
 50
222.2008348057941
 51
270.0
  0
ARC
  5
8BF
330
21
100
AcDbEntity
  8
0
100
AcDbCircle
 10
76.64408017538075
 20
161.809469366914
 30
0.0
 40
6.299212598425196
100
AcDbArc
 50
0.000000000000007
 51
43.10138464313602
  0
ARC
  5
8D5
330
21
100
AcDbEntity
  8
虚线
 62
     3
 48
0.3
370
    35
100
AcDbCircle
 10
72.7246266991346
 20
123.4971770466055
 30
0.0
 40
6.549212598425196
100
AcDbArc
 50
102.1034488707455
 51
180.0
  0
ARC
  5
8D6
330
21
100
AcDbEntity
  8
虚线
 62
     3
 48
0.3
370
    35
100
AcDbCircle
 10
75.28368181724482
 20
111.5637561283161
 30
0.0
 40
18.75393700787401
100
AcDbArc
 50
77.89655112925449
 51
102.1034488707455
  0
ARC
  5
8D7
330
21
100
AcDbEntity
  8
虚线
 62
     3
 48
0.3
370
    35
100
AcDbCircle
 10
77.84273693535505
 20
123.4971770466055
 30
0.0
 40
6.549212598425196
100
AcDbArc
 50
43.95275446780163
 51
77.89655112925449
  0
ARC
  5
8D8
330
21
100
AcDbEntity
  8
虚线
 62
     3
 48
0.3
370
    35
100
AcDbCircle
 10
83.13352595156244
 20
128.5980080968199
 30
0.0
 40
0.8
100
AcDbArc
 50
223.9527544678011
 51
270.0
  0
LINE
  5
8D9
330
21
100
AcDbEntity
  8
虚线
 62
     3
 48
0.3
370
    35
100
AcDbLine
 10
90.68525662039453
 20
127.79800809682
 30
0.0
 11
83.13352595156244
 21
127.79800809682
 31
0.0
  0
ARC
  5
8DA
330
21
100
AcDbEntity
  8
虚线
 62
     3
 48
0.3
370
    35
100
AcDbCircle
 10
90.68525662039446
 20
92.11493723067826
 30
0.0
 40
35.68307086614173
100
AcDbArc
 50
86.55026025917361
 51
90.0
  0
ARC
  5
8DB
330
21
100
AcDbEntity
  8
虚线
 62
     3
 48
0.3
370
    35
100
AcDbCircle
 10
92.62784776856454
 20
124.339903081323
 30
0.0
 40
3.399606299212598
100
AcDbArc
 50
3.448739025948345
 51
86.55026025917441
  0
ARC
  5
8DC
330
21
100
AcDbEntity
  8
虚线
 62
     3
 48
0.3
370
    35
100
AcDbCircle
 10
13.24431173850468
 20
119.555882112568
 30
0.0
 40
82.9271653543307
100
AcDbArc
 50
356.55126097405
 51
3.44873902594997
  0
ARC
  5
8DD
330
21
100
AcDbEntity
  8
虚线
 62
     3
 48
0.3
370
    35
100
AcDbCircle
 10
92.62784776856454
 20
114.771861143813
 30
0.0
 40
3.399606299212598
100
AcDbArc
 50
273.4497397408256
 51
356.55126097405
  0
ARC
  5
8DE
330
21
100
AcDbEntity
  8
虚线
 62
     3
 48
0.3
370
    35
100
AcDbCircle
 10
90.68525662039446
 20
146.9968269944578
 30
0.0
 40
35.68307086614173
100
AcDbArc
 50
270.0
 51
273.4497397408264
  0
LINE
  5
8DF
330
21
100
AcDbEntity
  8
虚线
 62
     3
 48
0.3
370
    35
100
AcDbLine
 10
90.68525662039446
 20
111.313756128316
 30
0.0
 11
70.36242197472512
 21
111.313756128316
 31
0.0
  0
ARC
  5
8E0
330
21
100
AcDbEntity
  8
虚线
 62
     3
 48
0.3
370
    35
100
AcDbCircle
 10
70.36242197472512
 20
115.5007640023318
 30
0.0
 40
4.187007874015748
100
AcDbArc
 50
180.0
 51
270.0
  0
LINE
  5
8E1
330
21
100
AcDbEntity
  8
虚线
 62
     3
 48
0.3
370
    35
100
AcDbLine
 10
66.17541410070936
 20
115.5007640023318
 30
0.0
 11
66.17541410070936
 21
123.4971770466055
 31
0.0
  0
ARC
  5
8F4
330
21
100
AcDbEntity
  8
截面层
 62
     1
 48
0.2
370
    35
100
AcDbCircle
 10
71.63449165599598
 20
93.49789096674854
 30
0.0
 40
6.299212598425196
100
AcDbArc
 50
102.1034488707455
 51
180.0
  0
ARC
  5
8F5
330
21
100
AcDbEntity
  8
截面层
 62
     1
 48
0.2
370
    35
100
AcDbCircle
 10
74.19354677410621
 20
81.56447004845905
 30
0.0
 40
18.50393700787401
100
AcDbArc
 50
77.89655112925449
 51
102.1034488707455
  0
LINE
  5
8F6
330
21
100
AcDbEntity
  8
截面层
 62
     1
 48
0.2
370
    35
100
AcDbLine
 10
65.33527905757074
 20
85.5014779224748
 30
0.0
 11
65.33527905757074
 21
93.49789096674854
 31
0.0
  0
ARC
  5
8F7
330
21
100
AcDbEntity
  8
截面层
 62
     1
 48
0.2
370
    35
100
AcDbCircle
 10
69.2722869315865
 20
85.5014779224748
 30
0.0
 40
3.937007874015748
100
AcDbArc
 50
180.0
 51
270.0
  0
LINE
  5
8F8
330
21
100
AcDbEntity
  8
截面层
 62
     1
 48
0.2
370
    35
100
AcDbLine
 10
89.59512157725583
 20
81.56447004845905
 30
0.0
 11
69.2722869315865
 21
81.56447004845905
 31
0.0
  0
ARC
  5
8F9
330
21
100
AcDbEntity
  8
截面层
 62
     1
 48
0.2
370
    35
100
AcDbCircle
 10
89.59512157725583
 20
116.9975409146008
 30
0.0
 40
35.43307086614174
100
AcDbArc
 50
270.0
 51
273.4497397408264
  0
ARC
  5
8FA
330
21
100
AcDbEntity
  8
截面层
 62
     1
 48
0.2
370
    35
100
AcDbCircle
 10
91.53771272542593
 20
84.772575063956
 30
0.0
 40
3.149606299212598
100
AcDbArc
 50
273.4497397408256
 51
356.55126097405
  0
ARC
  5
8FB
330
21
100
AcDbEntity
  8
截面层
 62
     1
 48
0.2
370
    35
100
AcDbCircle
 10
12.15417669536606
 20
89.55659603271101
 30
0.0
 40
82.67716535433072
100
AcDbArc
 50
356.55126097405
 51
3.44873902594997
  0
ARC
  5
8FC
330
21
100
AcDbEntity
  8
截面层
 62
     1
 48
0.2
370
    35
100
AcDbCircle
 10
91.53771272542593
 20
94.34061700146603
 30
0.0
 40
3.149606299212598
100
AcDbArc
 50
3.448739025948345
 51
86.55026025917441
  0
ARC
  5
8FD
330
21
100
AcDbEntity
  8
截面层
 62
     1
 48
0.2
370
    35
100
AcDbCircle
 10
89.59512157725583
 20
62.11565115082123
 30
0.0
 40
35.43307086614174
100
AcDbArc
 50
86.55026025917361
 51
90.0
  0
LINE
  5
8FE
330
21
100
AcDbEntity
  8
截面层
 62
     1
 48
0.2
370
    35
100
AcDbLine
 10
89.59512157725592
 20
97.54872201696295
 30
0.0
 11
81.93606189880611
 21
97.54872201696295
 31
0.0
  0
ARC
  5
8FF
330
21
100
AcDbEntity
  8
截面层
 62
     1
 48
0.2
370
    35
100
AcDbCircle
 10
81.93606189880611
 20
98.34872201696297
 30
0.0
 40
0.8
100
AcDbArc
 50
223.1013846431364
 51
270.0
  0
ARC
  5
900
330
21
100
AcDbEntity
  8
截面层
 62
     1
 48
0.2
370
    35
100
AcDbCircle
 10
76.75260189221643
 20
93.49789096674854
 30
0.0
 40
6.299212598425196
100
AcDbArc
 50
43.10138464313642
 51
77.89655112925449
  0
LINE
  5
913
330
21
100
AcDbEntity
  8
虚线
 62
    11
 48
0.15
370
    35
100
AcDbLine
 10
88.97631316722543
 20
51.51067421155357
 30
0.0
 11
68.65347852155611
 21
51.51067421155357
 31
0.0
  0
ARC
  5
914
330
21
100
AcDbEntity
  8
虚线
 62
    11
 48
0.15
370
    35
100
AcDbCircle
 10
90.91890431539553
 20
54.46877922705053
 30
0.0
 40
2.899606299212598
100
AcDbArc
 50
273.4497397408255
 51
356.55126097405
  0
ARC
  5
915
330
21
100
AcDbEntity
  8
虚线
 62
    11
 48
0.15
370
    35
100
AcDbCircle
 10
88.97631316722543
 20
86.69374507769536
 30
0.0
 40
35.18307086614174
100
AcDbArc
 50
270.0
 51
273.4497397408264
  0
ARC
  5
916
330
21
100
AcDbEntity
  8
虚线
 62
    11
 48
0.15
370
    35
100
AcDbCircle
 10
11.53536828533566
 20
59.25280019580554
 30
0.0
 40
82.42716535433071
100
AcDbArc
 50
356.55126097405
 51
3.44873902594997
  0
ARC
  5
917
330
21
100
AcDbEntity
  8
虚线
 62
    11
 48
0.15
370
    35
100
AcDbCircle
 10
90.91890431539553
 20
64.03682116456057
 30
0.0
 40
2.899606299212598
100
AcDbArc
 50
3.448739025948345
 51
86.55026025917445
  0
ARC
  5
918
330
21
100
AcDbEntity
  8
虚线
 62
    11
 48
0.15
370
    35
100
AcDbCircle
 10
88.97631316722543
 20
31.81185531391577
 30
0.0
 40
35.18307086614174
100
AcDbArc
 50
86.55026025917363
 51
90.0
  0
LINE
  5
919
330
21
100
AcDbEntity
  8
虚线
 62
    11
 48
0.15
370
    35
100
AcDbLine
 10
88.97631316722552
 20
66.99492618005749
 30
0.0
 11
81.20765462196986
 21
66.99492618005749
 31
0.0
  0
ARC
  5
91A
330
21
100
AcDbEntity
  8
虚线
 62
    11
 48
0.15
370
    35
100
AcDbCircle
 10
81.20765462196986
 20
67.7949261800575
 30
0.0
 40
0.8
100
AcDbArc
 50
222.2008348057937
 51
270.0
  0
ARC
  5
91B
330
21
100
AcDbEntity
  8
虚线
 62
    11
 48
0.15
370
    35
100
AcDbCircle
 10
76.13379348218604
 20
63.19409512984307
 30
0.0
 40
6.049212598425196
100
AcDbArc
 50
42.20083480579374
 51
77.89655112925449
  0
ARC
  5
91C
330
21
100
AcDbEntity
  8
虚线
 62
    11
 48
0.15
370
    35
100
AcDbCircle
 10
73.57473836407582
 20
51.26067421155358
 30
0.0
 40
18.25393700787401
100
AcDbArc
 50
77.89655112925449
 51
102.1034488707455
  0
ARC
  5
91D
330
21
100
AcDbEntity
  8
虚线
 62
    11
 48
0.15
370
    35
100
AcDbCircle
 10
71.01568324596559
 20
63.19409512984307
 30
0.0
 40
6.049212598425196
100
AcDbArc
 50
102.1034488707455
 51
180.0
  0
LINE
  5
91E
330
21
100
AcDbEntity
  8
虚线
 62
    11
 48
0.15
370
    35
100
AcDbLine
 10
64.96647064754035
 20
55.19768208556934
 30
0.0
 11
64.96647064754035
 21
63.19409512984307
 31
0.0
  0
ARC
  5
91F
330
21
100
AcDbEntity
  8
虚线
 62
    11
 48
0.15
370
    35
100
AcDbCircle
 10
68.65347852155611
 20
55.19768208556934
 30
0.0
 40
3.687007874015748
100
AcDbArc
 50
180.0
 51
270.0
  0
DIMENSION
  5
921
102
{ACAD_XDICTIONARY
360
92A
102
}
102
{ACAD_REACTORS
330
930
102
}
330
21
100
AcDbEntity
  8
标注
100
AcDbDimension
  2
*D77
 10
71.57439645778008
 20
202.0928452947089
 30
0.0
 11
69.64720422519665
 21
204.191402544272
 31
0.0
 70
   164
 71
     5
 42
6.2992125984251
  3
副本Standard
100
AcDbRadialDimension
 15
67.3136425927343
 25
206.7324633675307
 35
0.0
 40
0.0
1001
ACAD
1000
DSTYLE
1002
{
1070
   288
1070
     1
1002
}
  0
DIMENSION
  5
931
102
{ACAD_XDICTIONARY
360
93A
102
}
102
{ACAD_REACTORS
330
940
102
}
330
21
100
AcDbEntity
  8
标注
100
AcDbDimension
  2
*D78
 10
74.13345157589013
 20
190.159424376419
 30
0.0
 11
77.24449213130466
 21
204.6668713551484
 31
0.0
 70
   164
 71
     5
 42
18.50393700787421
  3
副本Standard
100
AcDbRadialDimension
 15
78.01330933560577
 25
208.2520302847936
 35
0.0
 40
0.0
1001
ACAD
1000
DSTYLE
1002
{
1070
   279
1070
     1
1070
   288
1070
     1
1002
}
  0
DIMENSION
  5
941
102
{ACAD_XDICTIONARY
360
94A
102
}
102
{ACAD_REACTORS
330
950
102
}
330
21
100
AcDbEntity
  8
标注
100
AcDbDimension
  2
*D79
 10
69.21219173337064
 20
194.0964322504349
 30
0.0
 11
68.951766680036
 21
193.8215264495563
 31
0.0
 70
   164
 71
     5
 42
3.93700787401579
  3
副本Standard
100
AcDbRadialDimension
 15
66.50460150636035
 25
191.2382884187391
 35
0.0
 40
0.0
1001
ACAD
1000
DSTYLE
1002
{
1070
   288
1070
     1
1002
}
  0
DIMENSION
  5
951
102
{ACAD_XDICTIONARY
360
95A
102
}
102
{ACAD_REACTORS
330
960
102
}
330
21
100
AcDbEntity
  8
标注
100
AcDbDimension
  2
*D80
 10
76.69250669400021
 20
202.0928452947087
 30
0.0
 11
79.01487680102897
 21
203.7434844185045
 31
0.0
 70
   164
 71
     5
 42
6.299212598425469
  3
副本Standard
100
AcDbRadialDimension
 15
81.82694385200193
 25
205.7421787174988
 35
0.0
 40
0.0
1001
ACAD
1000
DSTYLE
1002
{
1070
   288
1070
     1
1002
}
  0
DIMENSION
  5
961
102
{ACAD_XDICTIONARY
360
96A
102
}
102
{ACAD_REACTORS
330
970
102
}
330
21
100
AcDbEntity
  8
标注
100
AcDbDimension
  2
*D81
 10
87.59243523086974
 20
193.3675293919161
 30
0.0
 11
87.80411886151004
 21
193.5806641286245
 31
0.0
 70
   164
 71
     5
 42
3.149606299212535
  3
副本Standard
100
AcDbRadialDimension
 15
85.37294762258412
 25
191.1328270411083
 35
0.0
 40
0.0
1001
ACAD
1000
DSTYLE
1002
{
1070
   288
1070
     1
1002
}
  0
ENDSEC
  0
SECTION
  2
OBJECTS
  0
DICTIONARY
  5
C
330
0
100
AcDbDictionary
281
     1
  3
ACAD_COLOR
350
1C
  3
ACAD_GROUP
350
D
  3
ACAD_LAYOUT
350
1A
  3
ACAD_MATERIAL
350
1B
  3
ACAD_MLINESTYLE
350
17
  3
ACAD_PLOTSETTINGS
350
19
  3
ACAD_PLOTSTYLENAME
350
E
  0
DICTIONARY
  5
F7
330
2
100
AcDbDictionary
280
     1
281
     1
  3
ACAD_LAYERSTATES
360
F8
  0
DICTIONARY
  5
4D1
330
4D0
100
AcDbDictionary
280
     1
281
     1
  3
ACAD_DIMASSOC
360
4D2
  0
DICTIONARY
  5
4D7
330
4D6
100
AcDbDictionary
280
     1
281
     1
  3
ACAD_DIMASSOC
360
4D8
  0
DICTIONARY
  5
4DA
330
4D9
100
AcDbDictionary
280
     1
281
     1
  3
ACAD_DIMASSOC
360
4DB
  0
DICTIONARY
  5
4DD
330
4DC
100
AcDbDictionary
280
     1
281
     1
  3
ACAD_DIMASSOC
360
4DE
  0
DICTIONARY
  5
4E0
330
4DF
100
AcDbDictionary
280
     1
281
     1
  3
ACAD_DIMASSOC
360
4E1
  0
DICTIONARY
  5
4E3
330
4E2
100
AcDbDictionary
280
     1
281
     1
  3
ACAD_DIMASSOC
360
4E4
  0
DICTIONARY
  5
4E6
330
4E5
100
AcDbDictionary
280
     1
281
     1
  3
ACAD_DIMASSOC
360
4E7
  0
DICTIONARY
  5
4E9
330
4E8
100
AcDbDictionary
280
     1
281
     1
  3
ACAD_DIMASSOC
360
4EA
  0
DICTIONARY
  5
6BE
330
6B1
100
AcDbDictionary
280
     1
281
     1
  3
ACAD_DIMASSOC
360
6C8
  0
DICTIONARY
  5
92A
330
921
100
AcDbDictionary
280
     1
281
     1
  3
ACAD_DIMASSOC
360
930
  0
DICTIONARY
  5
93A
330
931
100
AcDbDictionary
280
     1
281
     1
  3
ACAD_DIMASSOC
360
940
  0
DICTIONARY
  5
94A
330
941
100
AcDbDictionary
280
     1
281
     1
  3
ACAD_DIMASSOC
360
950
  0
DICTIONARY
  5
95A
330
951
100
AcDbDictionary
280
     1
281
     1
  3
ACAD_DIMASSOC
360
960
  0
DICTIONARY
  5
96A
330
961
100
AcDbDictionary
280
     1
281
     1
  3
ACAD_DIMASSOC
360
970
  0
DICTIONARY
  5
1C
102
{ACAD_REACTORS
330
C
102
}
330
C
100
AcDbDictionary
281
     1
  0
DICTIONARY
  5
D
102
{ACAD_REACTORS
330
C
102
}
330
C
100
AcDbDictionary
281
     1
  0
DICTIONARY
  5
1A
102
{ACAD_REACTORS
330
C
102
}
330
C
100
AcDbDictionary
281
     1
  3
Model
350
24
  3
布局1
350
20
  3
布局2
350
28
  0
DICTIONARY
  5
1B
102
{ACAD_REACTORS
330
C
102
}
330
C
100
AcDbDictionary
281
     1
  0
DICTIONARY
  5
17
102
{ACAD_REACTORS
330
C
102
}
330
C
100
AcDbDictionary
281
     1
  3
Standard
350
18
  0
DICTIONARY
  5
19
102
{ACAD_REACTORS
330
C
102
}
330
C
100
AcDbDictionary
281
     1
  0
ACDBDICTIONARYWDFLT
  5
E
102
{ACAD_REACTORS
330
C
102
}
330
C
100
AcDbDictionary
281
     1
  3
Normal
350
F
100
AcDbDictionaryWithDefault
340
F
  0
DICTIONARY
  5
F8
102
{ACAD_REACTORS
330
F7
102
}
330
F7
100
AcDbDictionary
281
     1
  0
DIMASSOC
  5
4D2
102
{ACAD_REACTORS
330
4D1
102
}
330
4D1
100
AcDbDimAssoc
330
4D0
 90
        1
 70
     0
 71
     0
  1
AcDbOsnapPointRef
 72
     1
331
4AE
 73
     2
 91
        0
 40
1.0
 10
0.0
 20
0.0
 30
2.000000000000000E+50
 75
     0
  0
DIMASSOC
  5
4D8
102
{ACAD_REACTORS
330
4D7
102
}
330
4D7
100
AcDbDimAssoc
330
4D6
 90
        3
 70
     0
 71
     0
  1
AcDbOsnapPointRef
 72
     2
331
4AB
 73
     2
 91
        6
 40
1.570796326794896
 10
0.0
 20
0.0
 30
0.0
 75
     0
  1
AcDbOsnapPointRef
 72
     2
331
4AB
 73
     2
 91
        2
 40
4.712388980384687
 10
0.0
 20
0.0
 30
0.0
 75
     0
  0
DIMASSOC
  5
4DB
102
{ACAD_REACTORS
330
4DA
102
}
330
4DA
100
AcDbDimAssoc
330
4D9
 90
        3
 70
     0
 71
     0
  1
AcDbOsnapPointRef
 72
     1
331
4CF
 73
     2
 91
        3
 40
1.570796326794896
 10
0.0
 20
0.0
 30
2.000000000000000E+50
 75
     0
  1
AcDbOsnapPointRef
 72
    13
331
4CF
 73
     2
 91
        1
 40
4.712388980384689
 10
0.0
 20
0.0
 30
2.000000000000000E+50
 75
     0
  0
DIMASSOC
  5
4DE
102
{ACAD_REACTORS
330
4DD
102
}
330
4DD
100
AcDbDimAssoc
330
4DC
 90
        2
 70
     0
 71
     0
  1
AcDbOsnapPointRef
 72
     2
331
4AB
 73
     2
 91
        4
 40
6.283185307179585
 10
0.0
 20
0.0
 30
0.0
 75
     0
  0
DIMASSOC
  5
4E1
102
{ACAD_REACTORS
330
4E0
102
}
330
4E0
100
AcDbDimAssoc
330
4DF
 90
        3
 70
     0
 71
     0
  1
AcDbOsnapPointRef
 72
     1
331
4AA
 73
     2
 91
        1
 40
6.283185307179586
 10
0.0
 20
0.0
 30
2.000000000000000E+50
 75
     0
  1
AcDbOsnapPointRef
 72
     8
331
4AA
 73
     2
 91
        6
 40
0.0000000000000011
 10
0.0
 20
0.0
 30
0.0
 75
     1
  1
AcDbOsnapPointRef
 72
     1
331
4AA
 73
     2
 91
        1
 40
6.283185307179586
 10
0.0
 20
0.0
 30
2.000000000000000E+50
 75
     0
  0
DIMASSOC
  5
4E4
102
{ACAD_REACTORS
330
4E3
102
}
330
4E3
100
AcDbDimAssoc
330
4E2
 90
        3
 70
     0
 71
     0
  1
AcDbOsnapPointRef
 72
     1
331
4CF
 73
     2
 91
        9
 40
1.0
 10
0.0
 20
0.0
 30
2.000000000000000E+50
 75
     0
  1
AcDbOsnapPointRef
 72
    13
331
4CF
 73
     2
 91
        2
 40
0.0
 10
0.0
 20
0.0
 30
2.000000000000000E+50
 75
     0
  0
DIMASSOC
  5
4E7
102
{ACAD_REACTORS
330
4E6
102
}
330
4E6
100
AcDbDimAssoc
330
4E5
 90
        2
 70
     0
 71
     0
  1
AcDbOsnapPointRef
 72
     1
331
4AA
 73
     2
 91
        7
 40
4.712388980384689
 10
0.0
 20
0.0
 30
2.000000000000000E+50
 75
     0
  0
DIMASSOC
  5
4EA
102
{ACAD_REACTORS
330
4E9
102
}
330
4E9
100
AcDbDimAssoc
330
4E8
 90
        3
 70
     0
 71
     0
  1
AcDbOsnapPointRef
 72
     2
331
4CF
 73
     2
 91
        7
 40
1.570796326794897
 10
0.0
 20
0.0
 30
0.0
 75
     0
  1
AcDbOsnapPointRef
 72
     1
331
4CF
 73
     2
 91
       10
 40
4.712388980384689
 10
0.0
 20
0.0
 30
2.000000000000000E+50
 75
     0
  0
DIMASSOC
  5
6C8
102
{ACAD_REACTORS
330
6BE
102
}
330
6BE
100
AcDbDimAssoc
330
6B1
 90
        3
 70
     0
 71
     0
  1
AcDbOsnapPointRef
 72
    13
331
4AC
 73
     2
 91
        0
 40
0.0
 10
0.0
 20
0.0
 30
2.000000000000000E+50
 75
     0
  1
AcDbOsnapPointRef
 72
    11
331
69A
 73
     2
 91
        0
 40
0.0000000000000479
 10
0.0
 20
0.0
 30
0.0
332
4B5
 74
     2
 92
        0
 75
     0
  0
DIMASSOC
  5
930
102
{ACAD_REACTORS
330
92A
102
}
330
92A
100
AcDbDimAssoc
330
921
 90
        2
 70
     0
 71
     0
  1
AcDbOsnapPointRef
 72
     3
331
4AA
 73
     2
 91
        5
 40
0.0
 10
0.0
 20
0.0
 30
0.0
 75
     0
  0
DIMASSOC
  5
940
102
{ACAD_REACTORS
330
93A
102
}
330
93A
100
AcDbDimAssoc
330
931
 90
        2
 70
     0
 71
     0
  1
AcDbOsnapPointRef
 72
     3
331
4AA
 73
     2
 91
        4
 40
0.0
 10
0.0
 20
0.0
 30
0.0
 75
     0
  0
DIMASSOC
  5
950
102
{ACAD_REACTORS
330
94A
102
}
330
94A
100
AcDbDimAssoc
330
941
 90
        2
 70
     0
 71
     0
  1
AcDbOsnapPointRef
 72
     3
331
4AA
 73
     2
 91
        7
 40
0.0
 10
0.0
 20
0.0
 30
0.0
 75
     0
  0
DIMASSOC
  5
960
102
{ACAD_REACTORS
330
95A
102
}
330
95A
100
AcDbDimAssoc
330
951
 90
        2
 70
     0
 71
     0
  1
AcDbOsnapPointRef
 72
     3
331
4AA
 73
     2
 91
        3
 40
0.0
 10
0.0
 20
0.0
 30
0.0
 75
     0
  0
DIMASSOC
  5
970
102
{ACAD_REACTORS
330
96A
102
}
330
96A
100
AcDbDimAssoc
330
961
 90
        2
 70
     0
 71
     0
  1
AcDbOsnapPointRef
 72
     3
331
4AB
 73
     2
 91
        1
 40
0.0
 10
0.0
 20
0.0
 30
0.0
 75
     0
  0
LAYOUT
  5
24
102
{ACAD_REACTORS
330
1A
102
}
330
1A
100
AcDbPlotSettings
  1

  2
FX DocuPrint 255-AP
  4

  6

 40
0.0
 41
0.0
 42
0.0
 43
0.0
 44
0.0
 45
0.0
 46
0.0
 47
0.0
 48
0.0
 49
0.0
140
0.0
141
0.0
142
1.0
143
1.0
 70
  1712
 72
     0
 73
     0
 74
     0
  7

 75
     0
147
1.0
 76
     0
 77
     2
 78
   300
148
0.0
149
0.0
100
AcDbLayout
  1
Model
 70
     1
 71
     0
 10
0.0
 20
0.0
 11
12.0
 21
9.0
 12
0.0
 22
0.0
 32
0.0
 14
0.0
 24
0.0
 34
0.0
 15
0.0
 25
0.0
 35
0.0
146
0.0
 13
0.0
 23
0.0
 33
0.0
 16
1.0
 26
0.0
 36
0.0
 17
0.0
 27
1.0
 37
0.0
 76
     0
330
21
  0
LAYOUT
  5
20
102
{ACAD_REACTORS
330
1A
102
}
330
1A
100
AcDbPlotSettings
  1

  2
FX DocuPrint 255-AP
  4

  6

 40
0.0
 41
0.0
 42
0.0
 43
0.0
 44
0.0
 45
0.0
 46
0.0
 47
0.0
 48
0.0
 49
0.0
140
0.0
141
0.0
142
1.0
143
1.0
 70
   688
 72
     0
 73
     0
 74
     5
  7

 75
    16
147
1.0
 76
     0
 77
     2
 78
   300
148
0.0
149
0.0
100
AcDbLayout
  1
布局1
 70
     1
 71
     1
 10
0.0
 20
0.0
 11
420.0
 21
297.0
 12
0.0
 22
0.0
 32
0.0
 14
1.000000000000000E+20
 24
1.000000000000000E+20
 34
1.000000000000000E+20
 15
-1.000000000000000E+20
 25
-1.000000000000000E+20
 35
-1.000000000000000E+20
146
0.0
 13
0.0
 23
0.0
 33
0.0
 16
1.0
 26
0.0
 36
0.0
 17
0.0
 27
1.0
 37
0.0
 76
     0
330
1D
  0
LAYOUT
  5
28
102
{ACAD_REACTORS
330
1A
102
}
330
1A
100
AcDbPlotSettings
  1

  2
FX DocuPrint 255-AP
  4

  6

 40
0.0
 41
0.0
 42
0.0
 43
0.0
 44
0.0
 45
0.0
 46
0.0
 47
0.0
 48
0.0
 49
0.0
140
0.0
141
0.0
142
1.0
143
1.0
 70
   688
 72
     0
 73
     0
 74
     5
  7

 75
    16
147
1.0
 76
     0
 77
     2
 78
   300
148
0.0
149
0.0
100
AcDbLayout
  1
布局2
 70
     1
 71
     2
 10
0.0
 20
0.0
 11
12.0
 21
9.0
 12
0.0
 22
0.0
 32
0.0
 14
0.0
 24
0.0
 34
0.0
 15
0.0
 25
0.0
 35
0.0
146
0.0
 13
0.0
 23
0.0
 33
0.0
 16
1.0
 26
0.0
 36
0.0
 17
0.0
 27
1.0
 37
0.0
 76
     0
330
25
  0
MLINESTYLE
  5
18
102
{ACAD_REACTORS
330
17
102
}
330
17
100
AcDbMlineStyle
  2
STANDARD
 70
     0
  3

 62
   256
 51
90.0
 52
90.0
 71
     2
 49
0.5
 62
   256
  6
BYLAYER
 49
-0.5
 62
   256
  6
BYLAYER
  0
ACDBPLACEHOLDER
  5
F
102
{ACAD_REACTORS
330
E
102
}
330
E
  0
ENDSEC
  0
EOF
